<?xml version="1.0" standalone="no"?>
<!DOCTYPE svg PUBLIC "-//W3C//DTD SVG 1.1//EN" "http://www.w3.org/Graphics/SVG/1.1/DTD/svg11.dtd" >
<svg xmlns="http://www.w3.org/2000/svg" xmlns:xlink="http://www.w3.org/1999/xlink" version="1.1">
<metadata>
Created by FontForge 20170731 at Fri Mar 24 17:28:16 2023
 By Aleksey,,,
Copyright (c) 2015-2019 by Typetype. Designers Yulia Gonina and Ivan Gladkikh, technical designers Kseniya Karataeva, Anna Tikhonova, Nadyr Rakhimov, Maria Mizeritskaya. New remastered version created in 2019 by Yulia Gonina. All rights reserved. |DCNT
</metadata>
<defs>
<font id="TTChocolates-Medium" horiz-adv-x="1069" >
  <font-face 
    font-family="TT Chocolates Light"
    font-weight="500"
    font-stretch="normal"
    units-per-em="2048"
    panose-1="2 0 8 3 3 0 0 2 0 3"
    ascent="1638"
    descent="-410"
    x-height="942"
    cap-height="1372"
    bbox="-903 -543 2945 2054"
    underline-thickness="40"
    underline-position="-347"
    unicode-range="U+000D-FB06"
  />
<missing-glyph horiz-adv-x="0" 
 />
    <glyph glyph-name="ff" unicode="ff" horiz-adv-x="1241" 
d="M205 782h-144v160h144v211q0 135 80 218t211 83q141 0 239 -98l-98 -131q-66 69 -133 69q-57 0 -90 -37.5t-33 -103.5v-211h391v211q0 135 80 218t211 83q142 0 240 -98l-99 -131q-66 69 -133 69q-59 0 -91 -37t-32 -104v-211h266v-160h-266v-782h-176v782h-391v-782
h-176v782z" />
    <glyph glyph-name="fi" unicode="fi" horiz-adv-x="1060" 
d="M205 782h-144v160h144v123q0 171 106.5 280t272.5 109q91 0 173 -33.5t132 -89.5l-103 -125q-76 88 -198 88q-96 0 -151.5 -62.5t-55.5 -168.5v-121h547v-942h-176v782h-371v-782h-176v782z" />
    <glyph glyph-name="fl" unicode="fl" horiz-adv-x="1060" 
d="M205 782h-144v160h144v154q0 158 101 258t261 100q158 0 259.5 -101t101.5 -257v-1096h-176v1096q0 92 -50 145t-135 53t-135.5 -53t-50.5 -145v-154h248v-160h-248v-782h-176v782z" />
    <glyph glyph-name="ffi" unicode="ffi" horiz-adv-x="1628" 
d="M205 782h-144v160h144v211q0 135 80 218t211 83q141 0 239 -98l-98 -131q-66 69 -133 69q-57 0 -90 -37.5t-33 -103.5v-211h391v123q0 172 106 280.5t273 108.5q91 0 173 -33.5t132 -89.5l-102 -125q-76 88 -199 88q-96 0 -151.5 -62.5t-55.5 -168.5v-121h547v-942h-176
v782h-371v-782h-176v782h-391v-782h-176v782z" />
    <glyph glyph-name="ffl" unicode="ffl" horiz-adv-x="1628" 
d="M205 782h-144v160h144v211q0 135 80 218t211 83q141 0 239 -98l-98 -131q-66 69 -133 69q-57 0 -90 -37.5t-33 -103.5v-211h391v154q0 158 101 258t260 100t260.5 -101t101.5 -257v-1096h-176v1096q0 92 -50 145t-136 53q-85 0 -135 -53t-50 -145v-154h248v-160h-248
v-782h-176v782h-391v-782h-176v782z" />
    <glyph glyph-name="f_f_j" unicode="ffj" horiz-adv-x="1628" 
d="M1225 -512q-114 0 -195 78l88 143q47 -55 99 -55q50 0 76 37t26 100v991h-371v-782h-176v782h-391v-782h-176v782h-144v160h144v211q0 135 80 218t211 83q141 0 239 -98l-98 -131q-66 69 -133 69q-57 0 -90 -37.5t-33 -103.5v-211h391v123q0 172 106 280.5t273 108.5
q91 0 173 -33.5t132 -89.5l-102 -125q-76 88 -199 88q-96 0 -151.5 -62.5t-55.5 -168.5v-121h547v-1157q0 -134 -73.5 -215.5t-196.5 -81.5z" />
    <glyph glyph-name="f_j" unicode="fj" horiz-adv-x="1060" 
d="M657 -512q-113 0 -194 78l88 143q52 -55 98 -55q50 0 76.5 37t26.5 100v991h-371v-782h-176v782h-144v160h144v123q0 171 106.5 280t272.5 109q91 0 173 -33.5t132 -89.5l-103 -125q-76 88 -198 88q-96 0 -151.5 -62.5t-55.5 -168.5v-121h547v-1157q0 -134 -74 -215.5
t-197 -81.5z" />
    <glyph glyph-name=".notdef" horiz-adv-x="0" 
 />
    <glyph glyph-name=".null" horiz-adv-x="0" 
 />
    <glyph glyph-name="nonmarkingreturn" horiz-adv-x="682" 
 />
    <glyph glyph-name="NULL" horiz-adv-x="0" 
 />
    <glyph glyph-name="NULL" horiz-adv-x="0" 
 />
    <glyph glyph-name="CR" unicode="&#xd;" horiz-adv-x="0" 
 />
    <glyph glyph-name="space" unicode=" " horiz-adv-x="450" 
 />
    <glyph glyph-name="exclam" unicode="!" horiz-adv-x="512" 
d="M256 -12q-54 0 -88.5 34.5t-34.5 88.5t34.5 88t88.5 34t88.5 -34t34.5 -88t-34.5 -88.5t-88.5 -34.5zM156 1372h200l-30 -1012h-140z" />
    <glyph glyph-name="quotedbl" unicode="&#x22;" horiz-adv-x="657" 
d="M102 1372h168l-26 -444h-115zM387 1372h168l-27 -444h-114z" />
    <glyph glyph-name="numbersign" unicode="#" horiz-adv-x="1361" 
d="M281 354h-240l37 152h241l97 360h-242l39 152h242l92 354h172l-94 -354h282l94 354h173l-95 -354h242l-39 -152h-242l-96 -360h242l-39 -152h-240l-94 -354h-170l92 354h-282l-95 -354h-170zM774 506l96 360h-284l-97 -360h285z" />
    <glyph glyph-name="dollar" unicode="$" horiz-adv-x="1040" 
d="M451 -20q-123 12 -227 78.5t-173 177.5l144 118q133 -207 323 -207q109 0 174.5 56.5t65.5 150.5q0 82 -59.5 142.5t-198.5 115.5q-189 78 -275 176t-86 234q0 145 85 243.5t227 123.5v213h157v-213q198 -27 332 -205l-139 -121q-115 158 -271 158q-92 0 -146 -50
t-54 -135q0 -80 57 -137t191 -111q192 -78 281 -179t89 -240q0 -150 -93.5 -255t-246.5 -130v-213h-157v209z" />
    <glyph glyph-name="percent" unicode="%" horiz-adv-x="1615" 
d="M1040 1372h179l-641 -1372h-181zM377 748q-135 0 -230.5 95t-95.5 230t95.5 228.5t230.5 93.5t230 -94t95 -230q0 -135 -95 -229t-230 -94zM377 895q72 0 119 50.5t47 125.5t-47 125.5t-119 50.5t-119 -50.5t-47 -125.5t47 -125.5t119 -50.5zM1241 -23q-138 0 -232 95
t-94 231q0 135 95.5 228.5t230.5 93.5t229.5 -93.5t94.5 -228.5q0 -136 -94 -231t-230 -95zM1241 125q72 0 118 50t46 126t-46 126t-118 50t-119 -50.5t-47 -125.5t47 -125.5t119 -50.5z" />
    <glyph glyph-name="ampersand" unicode="&#x26;" horiz-adv-x="1429" 
d="M983 180q-188 -203 -444 -203q-192 0 -319.5 112.5t-127.5 281.5q0 134 81.5 245t227.5 177q-70 81 -102.5 148t-32.5 140q0 135 96.5 224.5t241.5 89.5q150 0 250 -95.5t100 -238.5h-186q0 74 -44.5 121t-117.5 47q-68 0 -110.5 -39.5t-42.5 -104.5q0 -95 106 -204
l408 -432q86 183 86 432h356v-154h-195q-22 -219 -127 -401l222 -232l-129 -123zM553 143q184 0 317 152l-356 381q-111 -38 -173 -114t-62 -175q0 -111 73.5 -177.5t200.5 -66.5z" />
    <glyph glyph-name="quotesingle" unicode="'" horiz-adv-x="372" 
d="M102 1372h168l-26 -444h-115z" />
    <glyph glyph-name="parenleft" unicode="(" horiz-adv-x="741" 
d="M580 -461q-201 180 -313.5 439t-112.5 540q0 283 113 545t313 442l120 -100q-169 -165 -268.5 -402t-99.5 -479q0 -245 98.5 -478t269.5 -404z" />
    <glyph glyph-name="parenright" unicode=")" horiz-adv-x="741" 
d="M41 -358q171 171 270 404.5t99 477.5q0 242 -100 479t-269 402l121 100q200 -180 313 -442t113 -545q0 -281 -112.5 -540t-313.5 -439z" />
    <glyph glyph-name="asterisk" unicode="*" horiz-adv-x="714" 
d="M143 903l117 158l-188 59l39 117l186 -61v196h121v-196l186 61l39 -117l-186 -59l114 -158l-98 -74l-115 160l-112 -160z" />
    <glyph glyph-name="plus" unicode="+" horiz-adv-x="911" 
d="M375 586h-314v159h314v306h160v-306h315v-159h-315v-322h-160v322z" />
    <glyph glyph-name="comma" unicode="," horiz-adv-x="503" 
d="M72 -274l129 489l190 -70l-211 -458z" />
    <glyph glyph-name="hyphen" unicode="-" horiz-adv-x="624" 
d="M82 621h461v-179h-461v179z" />
    <glyph glyph-name="period" unicode="." horiz-adv-x="512" 
d="M256 -12q-54 0 -88.5 34.5t-34.5 88.5t34.5 88t88.5 34t88.5 -34t34.5 -88t-34.5 -88.5t-88.5 -34.5z" />
    <glyph glyph-name="slash" unicode="/" horiz-adv-x="778" 
d="M590 1372h188l-590 -1618h-188z" />
    <glyph glyph-name="zero" unicode="0" horiz-adv-x="1241" 
d="M621 -23q-150 0 -265.5 88t-179 249t-63.5 372t63.5 372t179 249t265.5 88q152 0 267 -88.5t177.5 -249.5t62.5 -371q0 -318 -139 -513.5t-368 -195.5zM621 158q143 0 224 140.5t81 387.5t-81 387.5t-224 140.5q-146 0 -226 -139.5t-80 -388.5q0 -251 80 -389.5
t226 -138.5z" />
    <glyph glyph-name="one" unicode="1" horiz-adv-x="710" 
d="M326 1110l-187 -127l-98 145l405 281h70v-1409h-190v1110z" />
    <glyph glyph-name="two" unicode="2" horiz-adv-x="1126" 
d="M131 168q0 69 21.5 130.5t54 107.5t86 93t102 80t117.5 74q152 84 229.5 163t77.5 177q0 99 -67.5 161.5t-173.5 62.5q-220 0 -279 -261l-176 35q35 191 155 297.5t300 106.5q190 0 311 -112.5t121 -285.5q0 -78 -27 -145t-84.5 -127.5t-125 -111t-169.5 -111.5
q-50 -31 -85 -54.5t-75 -57t-64.5 -64t-41 -69.5t-16.5 -79h692v-178h-883v168z" />
    <glyph glyph-name="three" unicode="3" horiz-adv-x="1095" 
d="M518 -23q-149 0 -267 73t-190 210l154 102q93 -206 305 -206q121 0 191.5 68.5t70.5 181.5q0 126 -87 195t-236 69h-158v69l365 455h-504v178h799v-69l-383 -476q177 -20 286 -136.5t109 -284.5q0 -187 -127.5 -308t-327.5 -121z" />
    <glyph glyph-name="four" unicode="4" horiz-adv-x="1085" 
d="M662 250h-631v86l737 1073h84v-981h172v-178h-172v-250h-190v250zM662 428v555l-381 -555h381z" />
    <glyph glyph-name="five" unicode="5" horiz-adv-x="1105" 
d="M520 -23q-148 0 -263.5 73t-184.5 210l151 102q99 -206 299 -206q124 0 197.5 74.5t73.5 201.5q0 129 -78 205t-209 76q-134 0 -230 -78l-67 39l106 698h637v-178h-495l-51 -326q74 23 141 23q190 0 313 -128t123 -323q0 -203 -130.5 -333t-332.5 -130z" />
    <glyph glyph-name="six" unicode="6" horiz-adv-x="1105" 
d="M551 -23q-205 0 -337 137t-132 357q0 249 172 501t475 449l109 -133q-169 -117 -285 -231.5t-195 -241.5q98 70 226 70q189 0 319.5 -131t130.5 -320q0 -191 -139 -324t-344 -133zM561 156q121 0 202 79.5t81 198.5q0 118 -80.5 195.5t-202.5 77.5q-124 0 -206.5 -77.5
t-82.5 -195.5t83 -198t206 -80z" />
    <glyph glyph-name="seven" unicode="7" horiz-adv-x="1064" 
d="M737 1194h-614v178h870v-69l-596 -1303h-202z" />
    <glyph glyph-name="eight" unicode="8" horiz-adv-x="1146" 
d="M575 -23q-202 0 -337.5 116t-135.5 288q0 115 64 207.5t174 144.5q-80 48 -126 125.5t-46 169.5q0 154 118 260.5t289 106.5t287.5 -106.5t116.5 -260.5q0 -95 -45 -171t-125 -124q110 -52 172.5 -144t62.5 -208q0 -172 -135 -288t-334 -116zM575 150q123 0 201 68
t78 177q0 108 -78 176t-201 68t-202.5 -69t-79.5 -175t79.5 -175.5t202.5 -69.5zM575 811q94 0 153.5 57.5t59.5 149.5q0 91 -59.5 148t-153.5 57q-97 0 -157 -57t-60 -148q0 -92 60 -149.5t157 -57.5z" />
    <glyph glyph-name="nine" unicode="9" horiz-adv-x="1105" 
d="M268 84q169 116 284.5 230.5t195.5 242.5q-94 -70 -226 -70q-185 0 -317.5 131.5t-132.5 319.5q0 191 140 324t345 133t336 -137t131 -357q0 -249 -172 -501t-475 -449zM547 666q122 0 204.5 77t82.5 195t-82.5 198.5t-204.5 80.5q-121 0 -203 -80t-82 -199
q0 -118 81.5 -195t203.5 -77z" />
    <glyph glyph-name="colon" unicode=":" horiz-adv-x="512" 
d="M256 -12q-54 0 -88.5 34.5t-34.5 88.5t34.5 88t88.5 34t88.5 -34t34.5 -88t-34.5 -88.5t-88.5 -34.5zM256 709q-54 0 -88.5 34t-34.5 88t34.5 88.5t88.5 34.5t88.5 -34.5t34.5 -88.5t-34.5 -88t-88.5 -34z" />
    <glyph glyph-name="semicolon" unicode=";" horiz-adv-x="524" 
d="M72 -274l129 489l190 -70l-211 -458zM264 709q-52 0 -86.5 34.5t-34.5 87.5q0 54 34.5 88.5t88.5 34.5t87.5 -34.5t33.5 -88.5t-34.5 -88t-88.5 -34z" />
    <glyph glyph-name="less" unicode="&#x3c;" horiz-adv-x="905" 
d="M61 592v147l715 336l68 -141l-576 -268l576 -267l-66 -141z" />
    <glyph glyph-name="equal" unicode="=" horiz-adv-x="911" 
d="M61 571h789v-157h-789v157zM61 920h789v-158h-789v158z" />
    <glyph glyph-name="greater" unicode="&#x3e;" horiz-adv-x="905" 
d="M61 399l576 267l-576 268l68 141l715 -336v-147l-717 -334z" />
    <glyph glyph-name="question" unicode="?" horiz-adv-x="917" 
d="M420 -12q-54 0 -88.5 34.5t-34.5 88.5t34.5 88t88.5 34t88.5 -34t34.5 -88t-34.5 -88.5t-88.5 -34.5zM522 330q-258 58 -258 241q0 75 47 139t160 146q92 68 128 115.5t36 99.5q0 69 -55.5 107.5t-141.5 38.5q-164 0 -264 -140l-123 115q154 203 402 203q165 0 268.5 -90
t103.5 -236q0 -88 -50 -158.5t-175 -156.5q-85 -60 -115 -96.5t-30 -77.5t28.5 -65.5t96.5 -43.5z" />
    <glyph glyph-name="at" unicode="@" horiz-adv-x="1943" 
d="M846 -338q-206 38 -366 154t-248.5 291.5t-88.5 381.5q0 175 66 329.5t179.5 264.5t272 174t336.5 64q229 0 418 -100.5t297.5 -277t108.5 -392.5q0 -206 -95 -331.5t-247 -125.5q-87 0 -154 42.5t-100 115.5q-48 -75 -121 -117.5t-162 -42.5q-152 0 -256 111.5
t-104 271.5q0 157 106 269t254 112q145 0 238 -104v86h157v-424q0 -79 39.5 -127.5t102.5 -48.5q80 0 128 79t48 218q0 181 -84.5 326t-235.5 226.5t-340 81.5q-195 0 -352 -87.5t-245.5 -242t-88.5 -345.5q0 -264 163 -451t419 -229zM969 238q98 0 162.5 68.5t64.5 168.5
q0 99 -65 167.5t-162 68.5q-92 0 -156.5 -69t-64.5 -167q0 -100 64.5 -168.5t156.5 -68.5z" />
    <glyph glyph-name="A" unicode="A" horiz-adv-x="1245" 
d="M586 1409h71l537 -1409h-203l-114 313h-508l-115 -313h-203zM811 492l-188 516l-189 -516h377z" />
    <glyph glyph-name="B" unicode="B" horiz-adv-x="1140" 
d="M174 1372h340q193 0 317.5 -104t124.5 -264q0 -183 -170 -281q113 -44 177.5 -132t64.5 -200q0 -168 -135.5 -279.5t-343.5 -111.5h-375v1372zM549 178q132 0 210.5 59t78.5 162q0 102 -78.5 160.5t-210.5 58.5h-184v-440h184zM514 797q117 0 184.5 53t67.5 145
t-68 145.5t-184 53.5h-149v-397h149z" />
    <glyph glyph-name="C" unicode="C" horiz-adv-x="1394" 
d="M784 -23q-195 0 -353.5 91.5t-248.5 252t-90 357.5q0 148 54.5 281.5t148 228.5t222 151t271.5 56q152 0 284.5 -61t232.5 -173l-138 -129q-72 86 -171 131t-212 45q-213 0 -351 -147t-138 -373q0 -228 141 -376t359 -148q118 0 217.5 46.5t167.5 131.5l133 -125
q-99 -116 -234 -178t-295 -62z" />
    <glyph glyph-name="D" unicode="D" horiz-adv-x="1468" 
d="M174 1372h477q205 0 371 -89t260 -246t94 -351t-93.5 -351t-259.5 -246t-372 -89h-477v1372zM651 178q227 0 375 143.5t148 364.5t-148 364.5t-375 143.5h-286v-1016h286z" />
    <glyph glyph-name="E" unicode="E" horiz-adv-x="1038" 
d="M174 1372h731v-178h-540v-397h409v-179h-409v-440h550v-178h-741v1372z" />
    <glyph glyph-name="F" unicode="F" horiz-adv-x="972" 
d="M174 1372h727v-178h-536v-442h403v-179h-403v-573h-191v1372z" />
    <glyph glyph-name="G" unicode="G" horiz-adv-x="1476" 
d="M780 -20q-143 0 -270.5 54t-219 146.5t-145 222t-53.5 275.5q0 148 55 281t148 228.5t222 151.5t271 56q152 0 287 -61.5t234 -172.5l-138 -129q-73 86 -172.5 131t-212.5 45q-214 0 -352.5 -147.5t-138.5 -374.5q0 -225 142 -372.5t358 -147.5q223 0 368 158v249h-368
v179h559v-484q-104 -139 -253 -213.5t-321 -74.5z" />
    <glyph glyph-name="H" unicode="H" horiz-adv-x="1406" 
d="M174 1372h191v-590h677v590h191v-1372h-191v604h-677v-604h-191v1372z" />
    <glyph glyph-name="I" unicode="I" horiz-adv-x="538" 
d="M174 1372h191v-1372h-191v1372z" />
    <glyph glyph-name="J" unicode="J" horiz-adv-x="923" 
d="M360 -23q-228 0 -340 195l144 119q76 -135 198 -135q94 0 150.5 70t56.5 188v780h-385v178h576v-956q0 -196 -110.5 -317.5t-289.5 -121.5z" />
    <glyph glyph-name="K" unicode="K" horiz-adv-x="1153" 
d="M174 1372h191v-627l520 627h229l-547 -657l576 -715h-242l-536 666v-666h-191v1372z" />
    <glyph glyph-name="L" unicode="L" horiz-adv-x="976" 
d="M174 1372h191v-1194h530v-178h-721v1372z" />
    <glyph glyph-name="M" unicode="M" horiz-adv-x="1681" 
d="M174 1409h70l596 -823l598 823h69v-1409h-190v930l-445 -606h-65l-442 606v-930h-191v1409z" />
    <glyph glyph-name="N" unicode="N" horiz-adv-x="1482" 
d="M365 981v-981h-191v1409h70l874 -1018v981h191v-1409h-70z" />
    <glyph glyph-name="O" unicode="O" horiz-adv-x="1572" 
d="M788 -23q-143 0 -272 55.5t-222 150.5t-147.5 226t-54.5 277q0 145 55 276t147.5 226t221.5 151t272 56q142 0 270.5 -55.5t221 -150.5t147 -226t54.5 -277q0 -193 -92.5 -356.5t-252 -258t-348.5 -94.5zM786 164q212 0 352 148t140 374q0 224 -140.5 373t-351.5 149
q-213 0 -352 -148.5t-139 -373.5t139 -373.5t352 -148.5z" />
    <glyph glyph-name="P" unicode="P" horiz-adv-x="1103" 
d="M174 1372h354q212 0 348 -120t136 -308q0 -189 -135 -309.5t-345 -120.5h-167v-514h-191v1372zM528 692q134 0 213.5 68t79.5 184q0 115 -79.5 182.5t-213.5 67.5h-163v-502h163z" />
    <glyph glyph-name="Q" unicode="Q" horiz-adv-x="1572" 
d="M786 164q212 0 352 148t140 374q0 224 -140.5 373t-351.5 149q-213 0 -352 -148.5t-139 -373.5t139 -373.5t352 -148.5zM1239 -393q-227 0 -376.5 104.5t-174.5 272.5q-125 18 -235 79.5t-189.5 153.5t-125.5 214t-46 255q0 145 54.5 276t147.5 226t221.5 151t270.5 56
t270.5 -55.5t221.5 -150t148 -225.5t55 -276q0 -175 -76.5 -327.5t-211 -251.5t-300.5 -123q23 -93 117.5 -147t234.5 -54q139 0 187 16l22 -176q-75 -18 -215 -18z" />
    <glyph glyph-name="R" unicode="R" horiz-adv-x="1169" 
d="M174 1372h361q209 0 343 -117t134 -299q0 -134 -76.5 -238t-206.5 -147l369 -571h-226l-348 541h-159v-541h-191v1372zM528 719q135 0 214 63.5t79 173.5q0 109 -79.5 173.5t-213.5 64.5h-163v-475h163z" />
    <glyph glyph-name="S" unicode="S" horiz-adv-x="1040" 
d="M516 -25q-147 0 -267 67t-198 194l144 118q127 -200 323 -200q110 0 175 53.5t65 146.5q0 82 -59.5 142.5t-198.5 115.5q-189 78 -275 176t-86 234q0 164 110 268.5t283 104.5q245 0 408 -211l-139 -121q-116 154 -271 154q-93 0 -146.5 -48.5t-53.5 -132.5
q0 -80 57 -137t191 -111q192 -78 281 -179t89 -240q0 -173 -121 -283.5t-311 -110.5z" />
    <glyph glyph-name="T" unicode="T" horiz-adv-x="1167" 
d="M489 1194h-438v178h1065v-178h-436v-1194h-191v1194z" />
    <glyph glyph-name="U" unicode="U" horiz-adv-x="1366" 
d="M688 -23q-238 0 -381 159.5t-143 420.5v815h190v-805q0 -184 91.5 -297.5t234.5 -113.5q148 0 240 113t92 298v805h190v-815q0 -258 -143 -419t-371 -161z" />
    <glyph glyph-name="V" unicode="V" horiz-adv-x="1193" 
d="M41 1372h203l352 -985l356 985h201l-522 -1409h-70z" />
    <glyph glyph-name="W" unicode="W" horiz-adv-x="1961" 
d="M51 1372h201l326 -971l368 971h70l368 -971l326 971h201l-481 -1409h-70l-379 1012l-381 -1012h-70z" />
    <glyph glyph-name="X" unicode="X" horiz-adv-x="1204" 
d="M489 690l-397 682h223l301 -526l312 526h209l-412 -674l418 -698h-223l-320 543l-328 -543h-211z" />
    <glyph glyph-name="Y" unicode="Y" horiz-adv-x="1083" 
d="M440 520l-420 852h211l314 -639l321 639h197l-432 -852v-520h-191v520z" />
    <glyph glyph-name="Z" unicode="Z" horiz-adv-x="1236" 
d="M92 70l752 1124h-723v178h1024v-69l-750 -1125h746v-178h-1049v70z" />
    <glyph glyph-name="bracketleft" unicode="[" horiz-adv-x="663" 
d="M195 1454h407v-160h-233v-1564h233v-160h-407v1884z" />
    <glyph glyph-name="backslash" unicode="\" horiz-adv-x="778" 
d="M0 1372h188l590 -1618h-188z" />
    <glyph glyph-name="bracketright" unicode="]" horiz-adv-x="663" 
d="M61 -270h234v1564h-234v160h408v-1884h-408v160z" />
    <glyph glyph-name="asciicircum" unicode="^" horiz-adv-x="913" 
d="M82 850l301 522h147l301 -522l-133 -74l-241 418l-242 -418z" />
    <glyph glyph-name="underscore" unicode="_" horiz-adv-x="593" 
d="M-41 -207h676v-176h-676v176z" />
    <glyph glyph-name="grave" unicode="`" horiz-adv-x="393" 
d="M20 1333l132 99l221 -322l-101 -74z" />
    <glyph glyph-name="a" unicode="a" horiz-adv-x="1001" 
d="M401 -23q-143 0 -236 83t-93 212q0 134 104 222t262 88q145 0 264 -68v47q0 110 -63.5 177t-167.5 67q-135 0 -221 -117l-119 117q145 160 350 160q174 0 286 -112t112 -284v-569h-177v125q-121 -148 -301 -148zM438 127q110 0 182 64.5t80 168.5q-64 43 -122 62.5
t-129 19.5q-92 0 -146.5 -43.5t-54.5 -115.5t51 -114t139 -42z" />
    <glyph glyph-name="b" unicode="b" horiz-adv-x="1165" 
d="M627 -23q-97 0 -180.5 40.5t-141.5 113.5v-131h-172v1454h176v-647q59 74 142 116t180 42q191 0 321.5 -142.5t130.5 -351.5q0 -134 -60.5 -247.5t-165.5 -180t-230 -66.5zM598 143q131 0 217 93t86 235t-86 235t-217 93q-132 0 -218.5 -93.5t-86.5 -234.5
q0 -142 86.5 -235t218.5 -93z" />
    <glyph glyph-name="c" unicode="c" horiz-adv-x="1032" 
d="M571 -23q-135 0 -247.5 65t-177 178t-64.5 249q0 134 65 248t177.5 181t246.5 67q118 0 221.5 -51.5t172.5 -143.5l-125 -111q-107 140 -269 140q-134 0 -220.5 -93t-86.5 -233q0 -143 89 -236.5t225 -93.5q162 0 274 140l119 -107q-68 -93 -173 -146t-227 -53z" />
    <glyph glyph-name="d" unicode="d" horiz-adv-x="1165" 
d="M535 -23q-191 0 -322 142.5t-131 351.5q0 205 134 349.5t325 144.5q97 0 177.5 -39t137.5 -109v637h176v-1454h-170v141q-57 -77 -141 -120.5t-186 -43.5zM567 143q134 0 220.5 93t86.5 235q0 143 -86 235.5t-221 92.5q-131 0 -217 -93t-86 -235t86.5 -235t216.5 -93z
" />
    <glyph glyph-name="e" unicode="e" horiz-adv-x="1089" 
d="M573 -23q-216 0 -353.5 139.5t-137.5 354.5q0 213 134 353.5t339 140.5q194 0 323.5 -129.5t129.5 -331.5q0 -30 -7 -84h-735q17 -130 100.5 -203.5t217.5 -73.5q176 0 290 138l111 -105q-73 -97 -180 -148t-232 -51zM823 565q-19 116 -91 179t-183 63
q-112 0 -185.5 -64.5t-93.5 -177.5h553z" />
    <glyph glyph-name="f" unicode="f" horiz-adv-x="673" 
d="M205 782h-144v160h144v211q0 135 80 218t211 83q141 0 239 -98l-98 -131q-66 69 -133 69q-57 0 -90 -37.5t-33 -103.5v-211h266v-160h-266v-782h-176v782z" />
    <glyph glyph-name="g" unicode="g" horiz-adv-x="1075" 
d="M555 -362q133 0 208 44.5t75 124.5t-73.5 125t-207.5 45q-131 0 -204.5 -44.5t-73.5 -125.5q0 -80 73 -124.5t203 -44.5zM530 410q104 0 165 55t61 147q0 93 -61 148t-165 55q-102 0 -162.5 -55t-60.5 -148q0 -92 60 -147t163 -55zM555 -512q-205 0 -329 86t-124 227
q0 161 156 238q-131 49 -131 164q0 111 111 162q-107 99 -107 247q0 156 113 254.5t293 98.5q72 0 149 -23h328v-139h-140q58 -76 58 -189q0 -156 -112.5 -255t-287.5 -99q-97 0 -176 33q-65 -12 -65 -76q0 -90 170 -90h131q195 0 308.5 -85t113.5 -228q0 -149 -125 -237.5
t-334 -88.5z" />
    <glyph glyph-name="h" unicode="h" 
d="M133 1454h176v-633q114 144 281 144q155 0 255.5 -109.5t100.5 -275.5v-580h-176v547q0 117 -62.5 187.5t-166.5 70.5t-168 -71.5t-64 -188.5v-545h-176v1454z" />
    <glyph glyph-name="i" unicode="i" horiz-adv-x="440" 
d="M131 942h176v-942h-176v942zM219 1120q-49 0 -83 34t-34 83q0 51 34 85t85 34q48 0 82.5 -34.5t34.5 -84.5q0 -49 -34.5 -83t-84.5 -34z" />
    <glyph glyph-name="j" unicode="j" horiz-adv-x="442" 
d="M39 -512q-112 0 -193 78l86 143q52 -55 99 -55q50 0 76 37t26 100v1151h176v-1157q0 -134 -73 -215.5t-197 -81.5zM221 1120q-49 0 -83 34t-34 83q0 51 34 85t85 34q48 0 82.5 -34.5t34.5 -84.5q0 -49 -34.5 -83t-84.5 -34z" />
    <glyph glyph-name="k" unicode="k" horiz-adv-x="935" 
d="M133 1454h176v-950l385 438h207l-399 -446l424 -496h-228l-389 457v-457h-176v1454z" />
    <glyph glyph-name="l" unicode="l" horiz-adv-x="442" 
d="M133 1454h176v-1454h-176v1454z" />
    <glyph glyph-name="m" unicode="m" horiz-adv-x="1703" 
d="M133 942h172v-127q114 150 285 150q98 0 178 -48t125 -131q115 179 315 179q163 0 268 -110t105 -275v-580h-176v547q0 117 -61.5 187.5t-165.5 70.5t-168 -71.5t-64 -188.5v-545h-176v547q0 117 -62.5 187.5t-166.5 70.5t-168 -71.5t-64 -188.5v-545h-176v942z" />
    <glyph glyph-name="n" unicode="n" 
d="M133 942h172v-127q114 150 285 150q155 0 255.5 -109.5t100.5 -275.5v-580h-176v547q0 117 -62.5 187.5t-166.5 70.5t-168 -71.5t-64 -188.5v-545h-176v942z" />
    <glyph glyph-name="o" unicode="o" horiz-adv-x="1140" 
d="M571 -23q-134 0 -246.5 66.5t-177.5 180t-65 247.5t65 247.5t177.5 180t246.5 66.5q202 0 345 -145t143 -349t-143 -349t-345 -145zM571 143q133 0 219.5 92.5t86.5 235.5t-86.5 235.5t-219.5 92.5q-135 0 -221 -92.5t-86 -235.5t86 -235.5t221 -92.5z" />
    <glyph glyph-name="p" unicode="p" horiz-adv-x="1165" 
d="M598 143q131 0 220 93t89 235t-89 235t-220 93q-132 0 -218.5 -93.5t-86.5 -234.5q0 -142 86.5 -235t218.5 -93zM133 942h172v-141q57 77 140.5 120.5t185.5 43.5q191 0 321.5 -142.5t130.5 -351.5q0 -134 -60.5 -247.5t-165.5 -180t-230 -66.5q-97 0 -178.5 39
t-139.5 109v-637h-176v1454z" />
    <glyph glyph-name="q" unicode="q" horiz-adv-x="1165" 
d="M567 143q134 0 220.5 93t86.5 235q0 143 -86 235.5t-221 92.5q-131 0 -217 -93t-86 -235t86.5 -235t216.5 -93zM856 135q-122 -158 -321 -158q-191 0 -322 142.5t-131 351.5q0 205 134 349.5t325 144.5q97 0 180 -40.5t141 -113.5v131h170v-1454h-176v647z" />
    <glyph glyph-name="r" unicode="r" horiz-adv-x="655" 
d="M133 942h172v-137q100 160 266 160q15 0 64 -7l-29 -192q-37 12 -71 12q-103 0 -164.5 -63.5t-61.5 -173.5v-541h-176v942z" />
    <glyph glyph-name="s" unicode="s" horiz-adv-x="915" 
d="M463 -23q-127 0 -233.5 49t-178.5 144l117 121q124 -154 303 -154q85 0 135.5 31.5t50.5 85.5q0 49 -45.5 79.5t-152.5 57.5q-182 44 -264 115t-82 182q0 127 93 202t249 75q225 0 372 -162l-112 -119q-104 121 -266 121q-75 0 -117.5 -27.5t-42.5 -75.5q0 -49 44 -78.5
t150 -56.5q184 -42 267.5 -114.5t83.5 -184.5q0 -130 -102.5 -210.5t-268.5 -80.5z" />
    <glyph glyph-name="t" unicode="t" horiz-adv-x="759" 
d="M485 -23q-132 0 -206 79.5t-74 217.5v508h-144v160h144v254h176v-254h268v-160h-268v-497q0 -72 32.5 -110t94.5 -38q77 0 139 62l82 -117q-94 -105 -244 -105z" />
    <glyph glyph-name="u" unicode="u" 
d="M479 -23q-155 0 -255.5 109.5t-100.5 275.5v580h176v-547q0 -117 62.5 -187.5t166.5 -70.5t168 71.5t64 188.5v545h176v-942h-172v127q-114 -150 -285 -150z" />
    <glyph glyph-name="v" unicode="v" horiz-adv-x="931" 
d="M20 942h189l256 -631l258 631h188l-409 -979h-70z" />
    <glyph glyph-name="w" unicode="w" horiz-adv-x="1404" 
d="M31 942h176l209 -606l250 627h71l252 -627l209 606h176l-336 -979h-69l-267 676l-266 -676h-69z" />
    <glyph glyph-name="x" unicode="x" horiz-adv-x="915" 
d="M348 477l-299 465h209l205 -330l205 330h196l-299 -457l309 -485h-206l-215 346l-215 -346h-197z" />
    <glyph glyph-name="y" unicode="y" horiz-adv-x="950" 
d="M377 -29l-346 971h190l252 -717l266 717h181l-543 -1454h-180z" />
    <glyph glyph-name="z" unicode="z" horiz-adv-x="940" 
d="M72 70l518 712h-481v160h759v-70l-516 -712h508v-160h-788v70z" />
    <glyph glyph-name="braceleft" unicode="{" horiz-adv-x="673" 
d="M547 -430q-139 0 -220 81t-81 218v420q0 62 -41.5 102.5t-106.5 40.5h-16v160h16q65 0 106.5 40.5t41.5 102.5v420q0 137 81 218t220 81h65v-160h-65q-59 0 -94 -38.5t-35 -100.5v-420q0 -86 -36.5 -142.5t-107.5 -76.5v-8q71 -20 107.5 -76.5t36.5 -142.5v-420
q0 -62 35 -100.5t94 -38.5h65v-160h-65z" />
    <glyph glyph-name="bar" unicode="|" horiz-adv-x="587" 
d="M205 1454h178v-1966h-178v1966z" />
    <glyph glyph-name="braceright" unicode="}" horiz-adv-x="673" 
d="M61 -270h66q59 0 94 38.5t35 100.5v420q0 179 143 219v8q-143 40 -143 219v420q0 62 -35 100.5t-94 38.5h-66v160h66q139 0 220 -81t81 -218v-420q0 -62 41 -102.5t106 -40.5h17v-160h-17q-65 0 -106 -40.5t-41 -102.5v-420q0 -137 -81 -218t-220 -81h-66v160z" />
    <glyph glyph-name="asciitilde" unicode="~" horiz-adv-x="911" 
d="M602 532q-79 0 -186 60q-5 3 -15 7q-71 35 -94 37q-5 1 -12 1q-72 0 -121 -98l-113 67q30 91 95 140t151 49q41 0 82 -13.5t107 -48.5q50 -26 72 -34.5t44 -8.5q40 0 69 23.5t54 74.5l115 -67q-30 -91 -96 -140t-152 -49z" />
    <glyph glyph-name="nbspace" unicode="&#xa0;" horiz-adv-x="450" 
 />
    <glyph glyph-name="exclamdown" unicode="&#xa1;" horiz-adv-x="512" 
d="M186 582h140l30 -1012h-200zM256 709q-54 0 -88.5 34t-34.5 88t34.5 88.5t88.5 34.5t88.5 -34.5t34.5 -88.5t-34.5 -88t-88.5 -34z" />
    <glyph glyph-name="cent" unicode="&#xa2;" horiz-adv-x="1032" 
d="M473 -12q-169 33 -280 167t-111 314q0 179 111.5 316t279.5 169v217h160v-210q99 -12 185 -62t147 -129l-125 -111q-107 140 -269 140q-134 0 -220.5 -93t-86.5 -233q0 -143 89 -236.5t225 -93.5q162 0 274 140l119 -107q-61 -81 -148 -131.5t-190 -62.5v-211h-160v217z
" />
    <glyph glyph-name="sterling" unicode="&#xa3;" horiz-adv-x="974" 
d="M82 74q258 203 258 477q0 42 -4 59h-193v144h152l-41 100q-61 125 -61 215q0 137 103 231.5t265 94.5q186 0 318 -135l-109 -134q-102 91 -207 91q-84 0 -132 -44t-48 -118q0 -33 12 -68t45 -106q24 -45 52 -127h272v-144h-238q4 -15 4 -65q0 -205 -149 -367h532v-178
h-831v74z" />
    <glyph glyph-name="currency" unicode="&#xa4;" horiz-adv-x="995" 
d="M61 367l150 151q-49 81 -49 178q0 100 49 176l-150 152l107 106l151 -151q76 49 177 49q97 0 178 -49l153 151l107 -106l-154 -152q49 -81 49 -176q0 -99 -51 -176l156 -153l-107 -107l-153 154q-81 -49 -178 -49q-98 0 -174 49l-154 -154zM496 516q74 0 122 51t48 129
t-48.5 129.5t-121.5 51.5t-121.5 -51.5t-48.5 -129.5t48 -129t122 -51z" />
    <glyph glyph-name="yen" unicode="&#xa5;" horiz-adv-x="1083" 
d="M440 182h-219v144h219v108h-219v144h191l-392 794h211l314 -639l321 639h197l-406 -794h195v-144h-221v-108h221v-144h-221v-182h-191v182z" />
    <glyph glyph-name="brokenbar" unicode="&#xa6;" horiz-adv-x="587" 
d="M205 236h178v-748h-178v748zM205 1454h178v-747h-178v747z" />
    <glyph glyph-name="section" unicode="&#xa7;" horiz-adv-x="1003" 
d="M469 -289q-190 0 -299 166l125 98q70 -104 166 -104q57 0 93 32.5t36 86.5q0 61 -57 118t-195 136q-96 56 -145.5 129t-49.5 174q0 117 63 205.5t167 124.5q-73 63 -105 120t-32 123q0 119 85 197t214 78q187 0 296 -166l-122 -99q-71 105 -166 105q-60 0 -95.5 -32.5
t-35.5 -86.5q0 -60 57 -116t199 -140q95 -57 143.5 -128t48.5 -171q0 -119 -63 -207.5t-168 -124.5q73 -63 105 -120t32 -123q0 -119 -84 -197t-213 -78zM502 367q79 0 130.5 53t51.5 135q0 79 -51.5 131.5t-130.5 52.5t-131 -53t-52 -131q0 -82 51.5 -135t131.5 -53z" />
    <glyph glyph-name="dieresis" unicode="&#xa8;" horiz-adv-x="665" 
d="M137 1120q-49 0 -83 34t-34 83q0 51 33.5 85t83.5 34t84.5 -34t34.5 -85q0 -49 -34.5 -83t-84.5 -34zM526 1120q-49 0 -82.5 33.5t-33.5 83.5q0 51 33 85t83 34t84.5 -34t34.5 -85q0 -49 -34.5 -83t-84.5 -34z" />
    <glyph glyph-name="copyright" unicode="&#xa9;" horiz-adv-x="1669" 
d="M834 -33q-113 0 -220.5 37.5t-195.5 105t-154.5 156.5t-103.5 198t-37 222q0 115 37 224t103.5 197.5t154.5 156t195.5 104.5t220.5 37q189 0 353.5 -98t261.5 -264t97 -357q0 -142 -57.5 -274.5t-153.5 -230t-228 -156t-273 -58.5zM834 113q112 0 215 45.5t178 122
t119.5 182.5t44.5 223q0 156 -75 288t-203.5 209t-278.5 77t-278 -77t-202.5 -209t-74.5 -288q0 -117 44 -223t118.5 -182.5t177.5 -122t215 -45.5zM840 340q-149 0 -246.5 100t-97.5 252t97.5 252t246.5 100q91 0 167 -41.5t126 -115.5l-99 -88q-40 59 -86 84.5t-104 25.5
q-92 0 -146.5 -59t-54.5 -158q0 -98 55.5 -157.5t149.5 -59.5q117 0 196 111l95 -86q-118 -160 -299 -160z" />
    <glyph glyph-name="ordfeminine" unicode="&#xaa;" horiz-adv-x="667" 
d="M276 748q-101 0 -163 56.5t-62 143.5q0 92 69 149.5t179 57.5q95 0 166 -41q-2 66 -42.5 108t-103.5 42q-75 0 -133 -64l-86 100q95 95 234 95q127 0 204.5 -71.5t77.5 -188.5v-375h-151v67q-68 -79 -189 -79zM307 864q63 0 106.5 36.5t49.5 96.5q-63 41 -146 41
q-114 0 -114 -84q0 -40 27.5 -65t76.5 -25z" />
    <glyph glyph-name="guillemotleft" unicode="&#xab;" horiz-adv-x="956" 
d="M82 512l270 391l125 -86l-213 -305l213 -305l-125 -86zM438 512l273 391l123 -86l-211 -305l211 -305l-123 -86z" />
    <glyph glyph-name="logicalnot" unicode="&#xac;" horiz-adv-x="911" 
d="M690 586h-629v159h789v-395h-160v236z" />
    <glyph glyph-name="uni00AD" unicode="&#xad;" horiz-adv-x="624" 
d="M82 621h461v-179h-461v179z" />
    <glyph glyph-name="registered" unicode="&#xae;" horiz-adv-x="1669" 
d="M834 -33q-113 0 -220.5 37.5t-195.5 105t-154.5 156.5t-103.5 198t-37 222q0 115 37 224t103.5 197.5t154.5 156t195.5 104.5t220.5 37q189 0 353.5 -98t261.5 -264t97 -357q0 -142 -57.5 -274.5t-153.5 -230t-228 -156t-273 -58.5zM834 113q112 0 215 45.5t178 122
t119.5 182.5t44.5 223q0 156 -75 288t-203.5 209t-278.5 77t-278 -77t-202.5 -209t-74.5 -288q0 -117 44 -223t118.5 -182.5t177.5 -122t215 -45.5zM606 1034h246q113 0 184.5 -60.5t71.5 -156.5q0 -65 -35.5 -115t-97.5 -77l149 -275h-159l-131 248h-89v-248h-139v684z
M846 719q56 0 88.5 25.5t32.5 72.5q0 44 -32.5 70t-88.5 26h-101v-194h101z" />
    <glyph glyph-name="overscore" unicode="&#xaf;" horiz-adv-x="495" 
d="M20 1307h455v-144h-455v144z" />
    <glyph glyph-name="degree" unicode="&#xb0;" horiz-adv-x="917" 
d="M459 748q-135 0 -230.5 95t-95.5 230t95.5 228.5t230.5 93.5t230 -94t95 -230t-93 -229.5t-232 -93.5zM459 895q72 0 119 50.5t47 125.5t-47 125.5t-119 50.5t-119 -50.5t-47 -125.5t47 -125.5t119 -50.5z" />
    <glyph glyph-name="plusminus" unicode="&#xb1;" horiz-adv-x="911" 
d="M61 414h314v258h-314v159h314v308h160v-308h315v-159h-315v-258h315v-160h-789v160z" />
    <glyph glyph-name="uni00B2" unicode="&#xb2;" horiz-adv-x="739" 
d="M63 936l248 225q98 91 129 135t31 90q0 60 -32.5 96t-86.5 36q-56 0 -91 -40.5t-46 -113.5l-154 39q23 122 101 190t196 68q123 0 200 -73t77 -187q0 -74 -42.5 -138.5t-154.5 -164.5l-94 -82h313v-144h-594v64z" />
    <glyph glyph-name="uni00B3" unicode="&#xb3;" horiz-adv-x="729" 
d="M352 850q-103 0 -181.5 46.5t-109.5 125.5l127 80q47 -109 162 -109q61 0 97 31.5t36 85.5q0 57 -41.5 88t-119.5 31h-105v71l193 207h-297v131h514v-69l-203 -226q103 -17 163 -81t60 -158q0 -112 -83.5 -183t-211.5 -71z" />
    <glyph glyph-name="acute" unicode="&#xb4;" horiz-adv-x="393" 
d="M20 1110l222 322l131 -99l-250 -297z" />
    <glyph glyph-name="uni00B5" unicode="&#xb5;" horiz-adv-x="1079" 
d="M133 942h176v-547q0 -117 63 -187.5t167 -70.5t167.5 71.5t63.5 188.5v545h176v-942h-172v127q-105 -150 -268 -150q-113 0 -197 72v-561h-176v1454z" />
    <glyph glyph-name="paragraph" unicode="&#xb6;" horiz-adv-x="862" 
d="M336 -512q-117 0 -199 82l88 133q52 -55 107 -55q53 0 80.5 37t27.5 102v875q-160 0 -264 101t-104 255t104 254t264 100h361v-166h-185v-1419q0 -135 -76 -217t-204 -82z" />
    <glyph glyph-name="middot" unicode="&#xb7;" horiz-adv-x="450" 
d="M223 401q-51 0 -86 34.5t-35 88.5t34.5 88.5t88.5 34.5t88.5 -34.5t34.5 -88.5t-35.5 -88.5t-89.5 -34.5z" />
    <glyph glyph-name="cedilla" unicode="&#xb8;" horiz-adv-x="452" 
d="M203 -522q-46 0 -90.5 13.5t-67 26.5t-25.5 19l46 113q49 -49 118 -49q47 0 77 24.5t30 61.5t-33 62.5t-84 25.5h-80l68 248h133l-39 -140q81 -18 128.5 -69.5t47.5 -128.5q0 -91 -63.5 -149t-165.5 -58z" />
    <glyph glyph-name="uni00B9" unicode="&#xb9;" horiz-adv-x="600" 
d="M287 1432l-170 -119l-76 114l334 232h71v-787h-159v560z" />
    <glyph glyph-name="ordmasculine" unicode="&#xba;" horiz-adv-x="753" 
d="M377 748q-135 0 -230.5 94t-95.5 229t95.5 229.5t230.5 94.5t230 -94.5t95 -229.5q0 -136 -94.5 -229.5t-230.5 -93.5zM377 895q72 0 119 50.5t47 125.5t-47 125.5t-119 50.5t-119 -50.5t-47 -125.5t47 -125.5t119 -50.5z" />
    <glyph glyph-name="guillemotright" unicode="&#xbb;" horiz-adv-x="956" 
d="M123 207l211 305l-211 305l123 86l272 -391l-272 -391zM479 207l213 305l-213 305l125 86l270 -391l-270 -391z" />
    <glyph glyph-name="onequarter" unicode="&#xbc;" horiz-adv-x="1413" 
d="M920 1372h180l-643 -1372h-181zM279 1163l-170 -116l-78 114l334 232h71v-789h-157v559zM1110 113h-387v77l457 598h73v-544h99v-131h-99v-113h-143v113zM1110 244v264l-199 -264h199z" />
    <glyph glyph-name="onehalf" unicode="&#xbd;" horiz-adv-x="1507" 
d="M920 1372h180l-643 -1372h-181zM279 1163l-170 -116l-78 114l334 232h71v-789h-157v559zM842 66l248 223q98 91 128.5 134.5t30.5 90.5q0 60 -32.5 96.5t-86.5 36.5q-56 0 -91 -40t-46 -113l-153 36q23 123 100.5 192t194.5 69q124 0 201 -73t77 -190q0 -73 -42 -138.5
t-154 -164.5l-95 -82h314v-143h-594v66z" />
    <glyph glyph-name="threequarters" unicode="&#xbe;" horiz-adv-x="1536" 
d="M1044 1372h181l-643 -1372h-181zM332 582q-100 0 -179.5 47.5t-111.5 126.5l127 80q48 -111 164 -111q60 0 95.5 32.5t35.5 86.5q0 57 -42 88t-120 31h-104v69l194 207h-297v133h514v-72l-202 -223q101 -17 161 -81.5t60 -157.5q0 -111 -83 -183.5t-212 -72.5zM1233 113
h-387v77l457 598h73v-544h99v-131h-99v-113h-143v113zM1233 244v264l-199 -264h199z" />
    <glyph glyph-name="questiondown" unicode="&#xbf;" horiz-adv-x="917" 
d="M465 -453q-165 0 -269 90t-104 236q0 88 50 158.5t175 156.5q83 56 114.5 94t31.5 80q0 41 -28.5 65.5t-96.5 43.5l57 141q258 -58 258 -241q0 -75 -47 -139t-160 -146q-92 -68 -127.5 -115.5t-35.5 -99.5q0 -69 55 -107t141 -38q165 0 264 139l123 -115
q-154 -203 -401 -203zM498 709q-54 0 -88.5 34t-34.5 88t34.5 88.5t88.5 34.5t88.5 -34.5t34.5 -88.5t-34.5 -88t-88.5 -34z" />
    <glyph glyph-name="Agrave" unicode="&#xc0;" horiz-adv-x="1245" 
d="M586 1409h71l537 -1409h-203l-114 313h-508l-115 -313h-203zM811 492l-188 516l-189 -516h377zM346 1763l131 99l221 -322l-100 -74z" />
    <glyph glyph-name="Aacute" unicode="&#xc1;" horiz-adv-x="1245" 
d="M586 1409h71l537 -1409h-203l-114 313h-508l-115 -313h-203zM811 492l-188 516l-189 -516h377zM528 1540l222 322l131 -99l-250 -297z" />
    <glyph glyph-name="Acircumflex" unicode="&#xc2;" horiz-adv-x="1245" 
d="M586 1409h71l537 -1409h-203l-114 313h-508l-115 -313h-203zM811 492l-188 516l-189 -516h377zM328 1614l290 192l291 -192l-69 -117l-222 141l-219 -141z" />
    <glyph glyph-name="Atilde" unicode="&#xc3;" horiz-adv-x="1245" 
d="M586 1409h71l537 -1409h-203l-114 313h-508l-115 -313h-203zM811 492l-188 516l-189 -516h377zM330 1624q25 74 73.5 115t110.5 41q42 0 109 -35q64 -37 90 -37q27 0 45 16.5t35 57.5l112 -70q-23 -73 -72 -114.5t-112 -41.5q-49 0 -111 37q-57 35 -90 35
q-25 0 -42 -15.5t-36 -56.5z" />
    <glyph glyph-name="Adieresis" unicode="&#xc4;" horiz-adv-x="1245" 
d="M586 1409h71l537 -1409h-203l-114 313h-508l-115 -313h-203zM811 492l-188 516l-189 -516h377zM424 1550q-50 0 -83.5 34t-33.5 83q0 51 33.5 85t83.5 34t84.5 -34t34.5 -85q0 -49 -34.5 -83t-84.5 -34zM813 1550q-49 0 -83 34t-34 83q0 51 33.5 85t83.5 34t84.5 -34
t34.5 -85q0 -49 -34.5 -83t-84.5 -34z" />
    <glyph glyph-name="Aring" unicode="&#xc5;" horiz-adv-x="1245" 
d="M586 1409h71l537 -1409h-203l-114 313h-508l-115 -313h-203zM811 492l-188 516l-189 -516h377zM618 1444q-90 0 -152.5 60t-62.5 147q0 85 62.5 146t152.5 61q91 0 154.5 -60.5t63.5 -146.5q0 -87 -63 -147t-155 -60zM618 1556q41 0 69 27t28 68t-27.5 67.5t-69.5 26.5
q-41 0 -67.5 -26.5t-26.5 -67.5t26.5 -68t67.5 -27z" />
    <glyph glyph-name="AE" unicode="&#xc6;" horiz-adv-x="1605" 
d="M641 1372h836v-178h-605l56 -397h432v-179h-408l62 -440h479v-178h-641l-43 313h-477l-142 -313h-210zM782 492l-86 620l-284 -620h370z" />
    <glyph glyph-name="Ccedilla" unicode="&#xc7;" horiz-adv-x="1394" 
d="M745 -522q-45 0 -89 13t-66 26.5t-25 19.5l45 113q49 -49 119 -49q47 0 77 24.5t30 61.5t-33 62.5t-84 25.5h-80l57 209q-174 19 -312 114t-215 247t-77 333q0 148 54.5 281.5t148 228.5t222 151t271.5 56q152 0 284.5 -61t232.5 -173l-138 -129q-72 86 -171 131t-212 45
q-213 0 -351 -147t-138 -373q0 -228 141 -376t359 -148q118 0 217.5 46.5t167.5 131.5l133 -125q-93 -108 -217 -170.5t-269 -66.5l-26 -97q81 -18 128.5 -69.5t47.5 -128.5q0 -91 -64.5 -149t-167.5 -58z" />
    <glyph glyph-name="Egrave" unicode="&#xc8;" horiz-adv-x="1038" 
d="M174 1372h731v-178h-540v-397h409v-179h-409v-440h550v-178h-741v1372zM266 1763l131 99l221 -322l-100 -74z" />
    <glyph glyph-name="Eacute" unicode="&#xc9;" horiz-adv-x="1038" 
d="M174 1372h731v-178h-540v-397h409v-179h-409v-440h550v-178h-741v1372zM449 1540l221 322l131 -99l-250 -297z" />
    <glyph glyph-name="Ecircumflex" unicode="&#xca;" horiz-adv-x="1038" 
d="M174 1372h731v-178h-540v-397h409v-179h-409v-440h550v-178h-741v1372zM248 1614l291 192l290 -192l-69 -117l-221 141l-220 -141z" />
    <glyph glyph-name="Edieresis" unicode="&#xcb;" horiz-adv-x="1038" 
d="M174 1372h731v-178h-540v-397h409v-179h-409v-440h550v-178h-741v1372zM346 1550q-50 0 -83.5 34t-33.5 83q0 51 33.5 85t83.5 34t84.5 -34t34.5 -85q0 -49 -34.5 -83t-84.5 -34zM735 1550q-49 0 -83 34t-34 83q0 51 33.5 85t83.5 34t84.5 -34t34.5 -85q0 -49 -34.5 -83
t-84.5 -34z" />
    <glyph glyph-name="Igrave" unicode="&#xcc;" horiz-adv-x="540" 
d="M174 1372h191v-1372h-191v1372zM0 1763l131 99l221 -322l-100 -74z" />
    <glyph glyph-name="Iacute" unicode="&#xcd;" horiz-adv-x="540" 
d="M174 1372h191v-1372h-191v1372zM178 1540l221 322l131 -99l-249 -297z" />
    <glyph glyph-name="Icircumflex" unicode="&#xce;" horiz-adv-x="540" 
d="M174 1372h191v-1372h-191v1372zM-20 1614l290 192l291 -192l-69 -117l-222 141l-219 -141z" />
    <glyph glyph-name="Idieresis" unicode="&#xcf;" horiz-adv-x="542" 
d="M174 1372h191v-1372h-191v1372zM76 1550q-50 0 -83.5 34t-33.5 83q0 51 33.5 85t83.5 34t84.5 -34t34.5 -85q0 -49 -34.5 -83t-84.5 -34zM465 1550q-49 0 -83 34t-34 83q0 51 33.5 85t83.5 34t84.5 -34t34.5 -85q0 -49 -34.5 -83t-84.5 -34z" />
    <glyph glyph-name="Eth" unicode="&#xd0;" horiz-adv-x="1478" 
d="M184 608h-204v164h204v600h478q154 0 288.5 -52.5t230 -143t150.5 -218t55 -272.5t-55 -272.5t-150.5 -218t-230 -143t-288.5 -52.5h-478v608zM662 178q227 0 374.5 143.5t147.5 364.5t-147.5 364.5t-374.5 143.5h-287v-422h276v-164h-276v-430h287z" />
    <glyph glyph-name="Ntilde" unicode="&#xd1;" horiz-adv-x="1482" 
d="M365 981v-981h-191v1409h70l874 -1018v981h191v-1409h-70zM453 1624q25 74 73.5 115t110.5 41q41 0 108 -35q64 -37 91 -37q26 0 44 16.5t35 57.5l113 -70q-23 -73 -72 -114.5t-112 -41.5q-49 0 -111 37q-57 35 -90 35q-25 0 -42 -15.5t-36 -56.5z" />
    <glyph glyph-name="Ograve" unicode="&#xd2;" horiz-adv-x="1572" 
d="M788 -23q-143 0 -272 55.5t-222 150.5t-147.5 226t-54.5 277q0 145 55 276t147.5 226t221.5 151t272 56q142 0 270.5 -55.5t221 -150.5t147 -226t54.5 -277q0 -193 -92.5 -356.5t-252 -258t-348.5 -94.5zM786 164q212 0 352 148t140 374q0 224 -140.5 373t-351.5 149
q-213 0 -352 -148.5t-139 -373.5t139 -373.5t352 -148.5zM512 1763l131 99l221 -322l-100 -74z" />
    <glyph glyph-name="Oacute" unicode="&#xd3;" horiz-adv-x="1572" 
d="M788 -23q-143 0 -272 55.5t-222 150.5t-147.5 226t-54.5 277q0 145 55 276t147.5 226t221.5 151t272 56q142 0 270.5 -55.5t221 -150.5t147 -226t54.5 -277q0 -193 -92.5 -356.5t-252 -258t-348.5 -94.5zM786 164q212 0 352 148t140 374q0 224 -140.5 373t-351.5 149
q-213 0 -352 -148.5t-139 -373.5t139 -373.5t352 -148.5zM694 1540l221 322l132 -99l-250 -297z" />
    <glyph glyph-name="Ocircumflex" unicode="&#xd4;" horiz-adv-x="1572" 
d="M788 -23q-143 0 -272 55.5t-222 150.5t-147.5 226t-54.5 277q0 145 55 276t147.5 226t221.5 151t272 56q142 0 270.5 -55.5t221 -150.5t147 -226t54.5 -277q0 -193 -92.5 -356.5t-252 -258t-348.5 -94.5zM786 164q212 0 352 148t140 374q0 224 -140.5 373t-351.5 149
q-213 0 -352 -148.5t-139 -373.5t139 -373.5t352 -148.5zM496 1614l290 192l291 -192l-69 -117l-222 141l-219 -141z" />
    <glyph glyph-name="Otilde" unicode="&#xd5;" horiz-adv-x="1572" 
d="M788 -23q-143 0 -272 55.5t-222 150.5t-147.5 226t-54.5 277q0 145 55 276t147.5 226t221.5 151t272 56q142 0 270.5 -55.5t221 -150.5t147 -226t54.5 -277q0 -193 -92.5 -356.5t-252 -258t-348.5 -94.5zM786 164q212 0 352 148t140 374q0 224 -140.5 373t-351.5 149
q-213 0 -352 -148.5t-139 -373.5t139 -373.5t352 -148.5zM498 1624q25 74 73.5 115t110.5 41q42 0 109 -35q64 -37 90 -37q27 0 45 16.5t35 57.5l112 -70q-23 -73 -72 -114.5t-112 -41.5q-49 0 -111 37q-57 35 -90 35q-25 0 -42 -15.5t-36 -56.5z" />
    <glyph glyph-name="Odieresis" unicode="&#xd6;" horiz-adv-x="1572" 
d="M788 -23q-143 0 -272 55.5t-222 150.5t-147.5 226t-54.5 277q0 145 55 276t147.5 226t221.5 151t272 56q142 0 270.5 -55.5t221 -150.5t147 -226t54.5 -277q0 -193 -92.5 -356.5t-252 -258t-348.5 -94.5zM786 164q212 0 352 148t140 374q0 224 -140.5 373t-351.5 149
q-213 0 -352 -148.5t-139 -373.5t139 -373.5t352 -148.5zM592 1550q-50 0 -83.5 34t-33.5 83q0 51 33.5 85t83.5 34t84.5 -34t34.5 -85q0 -49 -34.5 -83t-84.5 -34zM981 1550q-49 0 -83 34t-34 83q0 51 33.5 85t83.5 34t84.5 -34t34.5 -85q0 -49 -34.5 -83t-84.5 -34z" />
    <glyph glyph-name="multiply" unicode="&#xd7;" horiz-adv-x="890" 
d="M92 418l248 248l-248 247l107 107l247 -248l248 248l105 -107l-246 -247l246 -248l-105 -107l-248 248l-247 -248z" />
    <glyph glyph-name="Oslash" unicode="&#xd8;" horiz-adv-x="1570" 
d="M209 6l108 156q-107 101 -166 235t-59 289q0 145 54.5 276t147.5 226t221.5 151t270.5 56q181 0 334 -86l105 149l135 -94l-107 -152q107 -101 166.5 -235.5t59.5 -290.5q0 -193 -92.5 -356.5t-252 -258t-348.5 -94.5q-176 0 -335 89l-107 -154zM1012 1153
q-101 55 -226 55q-213 0 -352 -148.5t-139 -373.5q0 -226 135 -367zM786 164q211 0 350.5 147.5t139.5 374.5q0 221 -133 367l-584 -834q107 -55 227 -55z" />
    <glyph glyph-name="Ugrave" unicode="&#xd9;" horiz-adv-x="1366" 
d="M688 -23q-238 0 -381 159.5t-143 420.5v815h190v-805q0 -184 91.5 -297.5t234.5 -113.5q148 0 240 113t92 298v805h190v-815q0 -258 -143 -419t-371 -161zM408 1763l131 99l221 -322l-101 -74z" />
    <glyph glyph-name="Uacute" unicode="&#xda;" horiz-adv-x="1366" 
d="M688 -23q-238 0 -381 159.5t-143 420.5v815h190v-805q0 -184 91.5 -297.5t234.5 -113.5q148 0 240 113t92 298v805h190v-815q0 -258 -143 -419t-371 -161zM590 1540l221 322l131 -99l-250 -297z" />
    <glyph glyph-name="Ucircumflex" unicode="&#xdb;" horiz-adv-x="1366" 
d="M688 -23q-238 0 -381 159.5t-143 420.5v815h190v-805q0 -184 91.5 -297.5t234.5 -113.5q148 0 240 113t92 298v805h190v-815q0 -258 -143 -419t-371 -161zM391 1614l291 192l291 -192l-70 -117l-221 141l-219 -141z" />
    <glyph glyph-name="Udieresis" unicode="&#xdc;" horiz-adv-x="1366" 
d="M688 -23q-238 0 -381 159.5t-143 420.5v815h190v-805q0 -184 91.5 -297.5t234.5 -113.5q148 0 240 113t92 298v805h190v-815q0 -258 -143 -419t-371 -161zM487 1550q-49 0 -82.5 33.5t-33.5 83.5q0 51 33 85t83 34t84.5 -34t34.5 -85q0 -49 -34.5 -83t-84.5 -34z
M877 1550q-49 0 -83 34t-34 83q0 51 33.5 85t83.5 34t84 -34t34 -85q0 -49 -34 -83t-84 -34z" />
    <glyph glyph-name="Yacute" unicode="&#xdd;" horiz-adv-x="1083" 
d="M440 520l-420 852h211l314 -639l321 639h197l-432 -852v-520h-191v520zM455 1540l221 322l131 -99l-250 -297z" />
    <glyph glyph-name="Thorn" unicode="&#xde;" horiz-adv-x="1318" 
d="M174 1372h191v-268h399q206 0 334.5 -115t128.5 -293t-129.5 -292.5t-337.5 -114.5h-395v-289h-191v1372zM764 467q124 0 198 62t74 167q0 104 -74.5 167t-197.5 63h-399v-459h399z" />
    <glyph glyph-name="germandbls" unicode="&#xdf;" horiz-adv-x="1095" 
d="M684 -23q-65 0 -117 12t-72 22.5t-20 13.5l60 145q6 -5 21 -11.5t48.5 -14t69.5 -7.5q86 0 140 43.5t54 110.5q0 34 -20 69.5t-42 59t-71 69.5q-47 44 -73.5 72t-57.5 70t-45 85.5t-14 92.5q0 182 225 354q-23 61 -82 96t-137 35q-115 0 -178.5 -79t-63.5 -216v-999h-176
v999q0 203 115 329t305 126q168 0 282.5 -96t114.5 -242q-119 -86 -174 -151.5t-55 -139.5q0 -32 10.5 -61.5t35 -61t45 -53t60.5 -59.5q86 -79 129 -145.5t43 -155.5q0 -136 -99 -224t-261 -88z" />
    <glyph glyph-name="agrave" unicode="&#xe0;" horiz-adv-x="1001" 
d="M401 -23q-143 0 -236 83t-93 212q0 134 104 222t262 88q145 0 264 -68v47q0 110 -63.5 177t-167.5 67q-135 0 -221 -117l-119 117q145 160 350 160q174 0 286 -112t112 -284v-569h-177v125q-121 -148 -301 -148zM438 127q110 0 182 64.5t80 168.5q-64 43 -122 62.5
t-129 19.5q-92 0 -146.5 -43.5t-54.5 -115.5t51 -114t139 -42zM225 1333l131 99l222 -322l-101 -74z" />
    <glyph glyph-name="aacute" unicode="&#xe1;" horiz-adv-x="1001" 
d="M401 -23q-143 0 -236 83t-93 212q0 134 104 222t262 88q145 0 264 -68v47q0 110 -63.5 177t-167.5 67q-135 0 -221 -117l-119 117q145 160 350 160q174 0 286 -112t112 -284v-569h-177v125q-121 -148 -301 -148zM438 127q110 0 182 64.5t80 168.5q-64 43 -122 62.5
t-129 19.5q-92 0 -146.5 -43.5t-54.5 -115.5t51 -114t139 -42zM408 1110l221 322l131 -99l-250 -297z" />
    <glyph glyph-name="acircumflex" unicode="&#xe2;" horiz-adv-x="1001" 
d="M401 -23q-143 0 -236 83t-93 212q0 134 104 222t262 88q145 0 264 -68v47q0 110 -63.5 177t-167.5 67q-135 0 -221 -117l-119 117q145 160 350 160q174 0 286 -112t112 -284v-569h-177v125q-121 -148 -301 -148zM438 127q110 0 182 64.5t80 168.5q-64 43 -122 62.5
t-129 19.5q-92 0 -146.5 -43.5t-54.5 -115.5t51 -114t139 -42zM207 1184l291 192l290 -192l-69 -117l-221 141l-219 -141z" />
    <glyph glyph-name="atilde" unicode="&#xe3;" horiz-adv-x="1001" 
d="M401 -23q-143 0 -236 83t-93 212q0 134 104 222t262 88q145 0 264 -68v47q0 110 -63.5 177t-167.5 67q-135 0 -221 -117l-119 117q145 160 350 160q174 0 286 -112t112 -284v-569h-177v125q-121 -148 -301 -148zM438 127q110 0 182 64.5t80 168.5q-64 43 -122 62.5
t-129 19.5q-92 0 -146.5 -43.5t-54.5 -115.5t51 -114t139 -42zM211 1194q25 74 73.5 115t110.5 41q9 0 17.5 -1t15.5 -2.5t15.5 -4t13.5 -4.5t13.5 -6t11.5 -5.5t11.5 -6t10.5 -5.5q64 -37 90 -37q27 0 45 16.5t35 57.5l112 -70q-23 -73 -72 -114.5t-112 -41.5
q-48 0 -110 37q-57 35 -91 35q-25 0 -41.5 -15.5t-35.5 -56.5z" />
    <glyph glyph-name="adieresis" unicode="&#xe4;" horiz-adv-x="1001" 
d="M401 -23q-143 0 -236 83t-93 212q0 134 104 222t262 88q145 0 264 -68v47q0 110 -63.5 177t-167.5 67q-135 0 -221 -117l-119 117q145 160 350 160q174 0 286 -112t112 -284v-569h-177v125q-121 -148 -301 -148zM438 127q110 0 182 64.5t80 168.5q-64 43 -122 62.5
t-129 19.5q-92 0 -146.5 -43.5t-54.5 -115.5t51 -114t139 -42zM305 1120q-49 0 -83 34t-34 83q0 51 33.5 85t83.5 34t84.5 -34t34.5 -85q0 -49 -34.5 -83t-84.5 -34zM694 1120q-49 0 -82.5 33.5t-33.5 83.5q0 51 33 85t83 34t84.5 -34t34.5 -85q0 -49 -34.5 -83t-84.5 -34z
" />
    <glyph glyph-name="aring" unicode="&#xe5;" horiz-adv-x="1001" 
d="M401 -23q-143 0 -236 83t-93 212q0 134 104 222t262 88q145 0 264 -68v47q0 110 -63.5 177t-167.5 67q-135 0 -221 -117l-119 117q145 160 350 160q174 0 286 -112t112 -284v-569h-177v125q-121 -148 -301 -148zM438 127q110 0 182 64.5t80 168.5q-64 43 -122 62.5
t-129 19.5q-92 0 -146.5 -43.5t-54.5 -115.5t51 -114t139 -42zM498 1014q-90 0 -152.5 60t-62.5 147q0 85 62.5 145.5t152.5 60.5q91 0 154 -60t63 -146q0 -87 -62.5 -147t-154.5 -60zM498 1126q41 0 68.5 27t27.5 68t-27.5 67.5t-68.5 26.5t-68 -26.5t-27 -67.5t27 -68
t68 -27z" />
    <glyph glyph-name="ae" unicode="&#xe6;" horiz-adv-x="1714" 
d="M422 -23q-154 0 -252 82t-98 211q0 136 107.5 224t275.5 88q136 0 258 -68v47q0 110 -66 177t-172 67q-139 0 -225 -117l-119 117q145 160 352 160q109 0 195.5 -43t140.5 -125q126 174 352 174q195 0 328 -131t133 -332q0 -38 -6 -82h-735q17 -130 98 -203t211 -73
q173 0 287 135l112 -105q-150 -196 -409 -196q-126 0 -224.5 50t-160.5 142q-61 -93 -161 -146t-222 -53zM440 127q114 0 184 64t76 169q-64 44 -121.5 63t-129.5 19q-93 0 -147 -43t-54 -116q0 -72 51 -114t141 -42zM1448 571q-18 115 -94 178.5t-187 63.5q-109 0 -180 -65
t-92 -177h553z" />
    <glyph glyph-name="ccedilla" unicode="&#xe7;" horiz-adv-x="1032" 
d="M539 -522q-46 0 -90 13.5t-64.5 25.5t-28.5 20l45 113q49 -49 121 -49q47 0 76 24.5t29 61.5t-32.5 62.5t-82.5 25.5h-82l59 211q-178 29 -292.5 163.5t-114.5 319.5q0 134 65 248t177.5 181t246.5 67q118 0 221.5 -51.5t172.5 -143.5l-125 -111q-107 140 -269 140
q-134 0 -220.5 -93t-86.5 -233q0 -143 89 -236.5t225 -93.5q162 0 274 140l119 -107q-63 -83 -153 -134.5t-197 -61.5l-27 -97q80 -18 127 -70t47 -128q0 -91 -63.5 -149t-165.5 -58z" />
    <glyph glyph-name="egrave" unicode="&#xe8;" horiz-adv-x="1089" 
d="M573 -23q-216 0 -353.5 139.5t-137.5 354.5q0 213 134 353.5t339 140.5q194 0 323.5 -129.5t129.5 -331.5q0 -30 -7 -84h-735q17 -130 100.5 -203.5t217.5 -73.5q176 0 290 138l111 -105q-73 -97 -180 -148t-232 -51zM823 565q-19 116 -91 179t-183 63
q-112 0 -185.5 -64.5t-93.5 -177.5h553zM281 1333l131 99l221 -322l-101 -74z" />
    <glyph glyph-name="eacute" unicode="&#xe9;" horiz-adv-x="1089" 
d="M573 -23q-216 0 -353.5 139.5t-137.5 354.5q0 213 134 353.5t339 140.5q194 0 323.5 -129.5t129.5 -331.5q0 -30 -7 -84h-735q17 -130 100.5 -203.5t217.5 -73.5q176 0 290 138l111 -105q-73 -97 -180 -148t-232 -51zM823 565q-19 116 -91 179t-183 63
q-112 0 -185.5 -64.5t-93.5 -177.5h553zM463 1110l221 322l131 -99l-250 -297z" />
    <glyph glyph-name="ecircumflex" unicode="&#xea;" horiz-adv-x="1089" 
d="M573 -23q-216 0 -353.5 139.5t-137.5 354.5q0 213 134 353.5t339 140.5q194 0 323.5 -129.5t129.5 -331.5q0 -30 -7 -84h-735q17 -130 100.5 -203.5t217.5 -73.5q176 0 290 138l111 -105q-73 -97 -180 -148t-232 -51zM823 565q-19 116 -91 179t-183 63
q-112 0 -185.5 -64.5t-93.5 -177.5h553zM262 1184l291 192l291 -192l-70 -117l-221 141l-219 -141z" />
    <glyph glyph-name="edieresis" unicode="&#xeb;" horiz-adv-x="1089" 
d="M573 -23q-216 0 -353.5 139.5t-137.5 354.5q0 213 134 353.5t339 140.5q194 0 323.5 -129.5t129.5 -331.5q0 -30 -7 -84h-735q17 -130 100.5 -203.5t217.5 -73.5q176 0 290 138l111 -105q-73 -97 -180 -148t-232 -51zM823 565q-19 116 -91 179t-183 63
q-112 0 -185.5 -64.5t-93.5 -177.5h553zM358 1120q-49 0 -82.5 33.5t-33.5 83.5q0 51 33 85t83 34t84.5 -34t34.5 -85q0 -49 -34.5 -83t-84.5 -34zM748 1120q-50 0 -83.5 34t-33.5 83q0 51 33.5 85t83.5 34t84 -34t34 -85q0 -49 -34 -83t-84 -34z" />
    <glyph glyph-name="igrave" unicode="&#xec;" horiz-adv-x="440" 
d="M131 942h176v-942h-176v942zM-51 1333l131 99l221 -322l-100 -74z" />
    <glyph glyph-name="iacute" unicode="&#xed;" horiz-adv-x="444" 
d="M135 942h176v-942h-176v942zM133 1110l221 322l131 -99l-249 -297z" />
    <glyph glyph-name="icircumflex" unicode="&#xee;" horiz-adv-x="438" 
d="M129 942h176v-942h-176v942zM-72 1184l291 192l291 -192l-70 -117l-221 141l-219 -141z" />
    <glyph glyph-name="idieresis" unicode="&#xef;" horiz-adv-x="452" 
d="M137 942h176v-942h-176v942zM61 1122q-47 0 -79.5 34.5t-32.5 82.5t32.5 81.5t79.5 33.5t80 -34t33 -81q0 -48 -33 -82.5t-80 -34.5zM389 1122q-47 0 -78.5 34.5t-31.5 82.5t32.5 81.5t81.5 33.5q47 0 79 -33.5t32 -81.5t-33 -82.5t-82 -34.5z" />
    <glyph glyph-name="eth" unicode="&#xf0;" horiz-adv-x="1132" 
d="M547 -23q-197 0 -331 133.5t-134 335.5q0 196 129 330.5t315 134.5q193 0 312 -145q-55 197 -244 352l-270 -149l-64 121l215 116q-94 64 -186 109l78 139q124 -61 266 -162l194 107l64 -119l-148 -80q297 -272 297 -668q0 -158 -63 -284.5t-176 -198.5t-254 -72z
M555 143q129 0 211 86t82 220q0 130 -84 213t-213 83q-128 0 -207.5 -83t-79.5 -216q0 -135 81 -219t210 -84z" />
    <glyph glyph-name="ntilde" unicode="&#xf1;" 
d="M133 942h172v-127q114 150 285 150q155 0 255.5 -109.5t100.5 -275.5v-580h-176v547q0 117 -62.5 187.5t-166.5 70.5t-168 -71.5t-64 -188.5v-545h-176v942zM250 1194q25 74 73.5 115t110.5 41q42 0 109 -35q64 -37 90 -37q27 0 45 16.5t35 57.5l112 -70
q-23 -73 -72 -114.5t-112 -41.5q-49 0 -111 37q-57 35 -90 35q-25 0 -42 -15.5t-36 -56.5z" />
    <glyph glyph-name="ograve" unicode="&#xf2;" horiz-adv-x="1140" 
d="M571 -23q-134 0 -246.5 66.5t-177.5 180t-65 247.5t65 247.5t177.5 180t246.5 66.5q202 0 345 -145t143 -349t-143 -349t-345 -145zM571 143q133 0 219.5 92.5t86.5 235.5t-86.5 235.5t-219.5 92.5q-135 0 -221 -92.5t-86 -235.5t86 -235.5t221 -92.5zM297 1333l131 99
l221 -322l-100 -74z" />
    <glyph glyph-name="oacute" unicode="&#xf3;" horiz-adv-x="1140" 
d="M571 -23q-134 0 -246.5 66.5t-177.5 180t-65 247.5t65 247.5t177.5 180t246.5 66.5q202 0 345 -145t143 -349t-143 -349t-345 -145zM571 143q133 0 219.5 92.5t86.5 235.5t-86.5 235.5t-219.5 92.5q-135 0 -221 -92.5t-86 -235.5t86 -235.5t221 -92.5zM479 1110l221 322
l131 -99l-249 -297z" />
    <glyph glyph-name="ocircumflex" unicode="&#xf4;" horiz-adv-x="1140" 
d="M571 -23q-134 0 -246.5 66.5t-177.5 180t-65 247.5t65 247.5t177.5 180t246.5 66.5q202 0 345 -145t143 -349t-143 -349t-345 -145zM571 143q133 0 219.5 92.5t86.5 235.5t-86.5 235.5t-219.5 92.5q-135 0 -221 -92.5t-86 -235.5t86 -235.5t221 -92.5zM279 1184l290 192
l291 -192l-69 -117l-222 141l-219 -141z" />
    <glyph glyph-name="otilde" unicode="&#xf5;" horiz-adv-x="1140" 
d="M571 -23q-134 0 -246.5 66.5t-177.5 180t-65 247.5t65 247.5t177.5 180t246.5 66.5q202 0 345 -145t143 -349t-143 -349t-345 -145zM571 143q133 0 219.5 92.5t86.5 235.5t-86.5 235.5t-219.5 92.5q-135 0 -221 -92.5t-86 -235.5t86 -235.5t221 -92.5zM283 1194
q25 74 73.5 115t110.5 41q41 0 108 -35q64 -37 91 -37q26 0 44 16.5t35 57.5l113 -70q-23 -73 -72 -114.5t-112 -41.5q-49 0 -111 37q-57 35 -90 35q-25 0 -42 -15.5t-36 -56.5z" />
    <glyph glyph-name="odieresis" unicode="&#xf6;" horiz-adv-x="1140" 
d="M571 -23q-134 0 -246.5 66.5t-177.5 180t-65 247.5t65 247.5t177.5 180t246.5 66.5q202 0 345 -145t143 -349t-143 -349t-345 -145zM571 143q133 0 219.5 92.5t86.5 235.5t-86.5 235.5t-219.5 92.5q-135 0 -221 -92.5t-86 -235.5t86 -235.5t221 -92.5zM375 1120
q-49 0 -83 34t-34 83q0 51 33.5 85t83.5 34t84.5 -34t34.5 -85q0 -49 -34.5 -83t-84.5 -34zM764 1120q-50 0 -83.5 34t-33.5 83q0 51 33.5 85t83.5 34t84.5 -34t34.5 -85q0 -49 -34.5 -83t-84.5 -34z" />
    <glyph glyph-name="divide" unicode="&#xf7;" horiz-adv-x="911" 
d="M455 223q-48 0 -80.5 33t-32.5 82q0 47 34 81t81 34t80.5 -34t33.5 -81q0 -49 -33 -82t-83 -33zM61 745h789v-159h-789v159zM455 879q-47 0 -80 33.5t-33 80.5q0 49 33.5 82t81.5 33t81 -33t33 -82q0 -48 -33.5 -81t-82.5 -33z" />
    <glyph glyph-name="oslash" unicode="&#xf8;" horiz-adv-x="1140" 
d="M162 6l74 105q-154 144 -154 360q0 134 65 247.5t177.5 180t246.5 66.5q115 0 224 -56l73 107l113 -78l-74 -107q152 -149 152 -360q0 -204 -143 -349t-345 -145q-116 0 -225 56l-72 -105zM698 772q-56 27 -127 27q-135 0 -221 -92.5t-86 -235.5q0 -131 72 -215zM569 143
q135 0 221.5 92.5t86.5 235.5q0 130 -72 217l-361 -518q53 -27 125 -27z" />
    <glyph glyph-name="ugrave" unicode="&#xf9;" 
d="M479 -23q-155 0 -255.5 109.5t-100.5 275.5v580h176v-547q0 -117 62.5 -187.5t166.5 -70.5t168 71.5t64 188.5v545h176v-942h-172v127q-114 -150 -285 -150zM258 1333l131 99l221 -322l-100 -74z" />
    <glyph glyph-name="uacute" unicode="&#xfa;" 
d="M479 -23q-155 0 -255.5 109.5t-100.5 275.5v580h176v-547q0 -117 62.5 -187.5t166.5 -70.5t168 71.5t64 188.5v545h176v-942h-172v127q-114 -150 -285 -150zM440 1110l222 322l131 -99l-250 -297z" />
    <glyph glyph-name="ucircumflex" unicode="&#xfb;" 
d="M479 -23q-155 0 -255.5 109.5t-100.5 275.5v580h176v-547q0 -117 62.5 -187.5t166.5 -70.5t168 71.5t64 188.5v545h176v-942h-172v127q-114 -150 -285 -150zM242 1184l290 192l291 -192l-69 -117l-222 141l-219 -141z" />
    <glyph glyph-name="udieresis" unicode="&#xfc;" 
d="M479 -23q-155 0 -255.5 109.5t-100.5 275.5v580h176v-547q0 -117 62.5 -187.5t166.5 -70.5t168 71.5t64 188.5v545h176v-942h-172v127q-114 -150 -285 -150zM338 1120q-50 0 -83.5 34t-33.5 83q0 51 33.5 85t83.5 34t84.5 -34t34.5 -85q0 -49 -34.5 -83t-84.5 -34z
M727 1120q-49 0 -83 34t-34 83q0 51 33.5 85t83.5 34t84.5 -34t34.5 -85q0 -49 -34.5 -83t-84.5 -34z" />
    <glyph glyph-name="yacute" unicode="&#xfd;" horiz-adv-x="950" 
d="M377 -29l-346 971h190l252 -717l266 717h181l-543 -1454h-180zM385 1110l221 322l131 -99l-250 -297z" />
    <glyph glyph-name="thorn" unicode="&#xfe;" horiz-adv-x="1169" 
d="M602 143q131 0 217 93t86 235t-86 235t-217 93q-132 0 -218.5 -93.5t-86.5 -234.5q0 -142 86.5 -235t218.5 -93zM133 1454h180v-639q119 150 322 150q191 0 321.5 -142.5t130.5 -351.5q0 -134 -60.5 -247.5t-165.5 -180t-230 -66.5q-97 0 -178.5 39t-139.5 109v-637h-180
v1966z" />
    <glyph glyph-name="ydieresis" unicode="&#xff;" horiz-adv-x="950" 
d="M377 -29l-346 971h190l252 -717l266 717h181l-543 -1454h-180zM283 1120q-49 0 -83 34t-34 83q0 51 33.5 85t83.5 34t84 -34t34 -85q0 -49 -34 -83t-84 -34zM672 1120q-50 0 -83.5 34t-33.5 83q0 51 33.5 85t83.5 34t84.5 -34t34.5 -85q0 -49 -34.5 -83t-84.5 -34z" />
    <glyph glyph-name="Amacron" unicode="&#x100;" horiz-adv-x="1245" 
d="M586 1409h71l537 -1409h-203l-114 313h-508l-115 -313h-203zM811 492l-188 516l-189 -516h377zM391 1737h455v-144h-455v144z" />
    <glyph glyph-name="amacron" unicode="&#x101;" horiz-adv-x="1001" 
d="M401 -23q-143 0 -236 83t-93 212q0 134 104 222t262 88q145 0 264 -68v47q0 110 -63.5 177t-167.5 67q-135 0 -221 -117l-119 117q145 160 350 160q174 0 286 -112t112 -284v-569h-177v125q-121 -148 -301 -148zM438 127q110 0 182 64.5t80 168.5q-64 43 -122 62.5
t-129 19.5q-92 0 -146.5 -43.5t-54.5 -115.5t51 -114t139 -42zM272 1307h455v-144h-455v144z" />
    <glyph glyph-name="Abreve" unicode="&#x102;" horiz-adv-x="1245" 
d="M586 1409h71l537 -1409h-203l-114 313h-508l-115 -313h-203zM811 492l-188 516l-189 -516h377zM618 1495q-119 0 -190.5 75t-71.5 199h140q0 -62 33.5 -99.5t88.5 -37.5q56 0 90.5 37.5t34.5 99.5h140q0 -126 -72.5 -200t-192.5 -74z" />
    <glyph glyph-name="abreve" unicode="&#x103;" horiz-adv-x="1001" 
d="M401 -23q-143 0 -236 83t-93 212q0 134 104 222t262 88q145 0 264 -68v47q0 110 -63.5 177t-167.5 67q-135 0 -221 -117l-119 117q145 160 350 160q174 0 286 -112t112 -284v-569h-177v125q-121 -148 -301 -148zM438 127q110 0 182 64.5t80 168.5q-64 43 -122 62.5
t-129 19.5q-92 0 -146.5 -43.5t-54.5 -115.5t51 -114t139 -42zM498 1065q-119 0 -190.5 75t-71.5 199h139q0 -62 34 -99.5t89 -37.5q56 0 90.5 37.5t34.5 99.5h139q0 -126 -72 -200t-192 -74z" />
    <glyph glyph-name="Aogonek" unicode="&#x104;" horiz-adv-x="1245" 
d="M1071 -522q-121 0 -190.5 60.5t-69.5 164.5q0 166 219 297h-39l-114 313h-508l-115 -313h-203l535 1409h71l537 -1409q-132 -91 -178.5 -146t-46.5 -116q0 -121 135 -121q36 0 86 12v-135q-49 -16 -119 -16zM809 492l-186 516l-191 -516h377z" />
    <glyph glyph-name="aogonek" unicode="&#x105;" horiz-adv-x="1001" 
d="M438 127q110 0 182 64.5t80 168.5q-64 43 -122 62.5t-129 19.5q-92 0 -146.5 -43.5t-54.5 -115.5t51 -114t139 -42zM756 -522q-121 0 -190.5 60.5t-69.5 164.5q0 86 52.5 158t166.5 139h-13v125q-121 -148 -301 -148q-143 0 -236 83t-93 212q0 134 106 222t271 88
q131 0 253 -68v47q0 110 -63.5 177t-167.5 67q-135 0 -221 -117l-119 117q145 160 350 160q174 0 286 -112t112 -284v-569q-132 -91 -179 -146t-47 -116q0 -121 135 -121q38 0 84 12v-135q-47 -16 -116 -16z" />
    <glyph glyph-name="Cacute" unicode="&#x106;" horiz-adv-x="1394" 
d="M784 -23q-195 0 -353.5 91.5t-248.5 252t-90 357.5q0 148 54.5 281.5t148 228.5t222 151t271.5 56q152 0 284.5 -61t232.5 -173l-138 -129q-72 86 -171 131t-212 45q-213 0 -351 -147t-138 -373q0 -228 141 -376t359 -148q118 0 217.5 46.5t167.5 131.5l133 -125
q-99 -116 -234 -178t-295 -62zM688 1540l221 322l131 -99l-249 -297z" />
    <glyph glyph-name="cacute" unicode="&#x107;" horiz-adv-x="1032" 
d="M571 -23q-135 0 -247.5 65t-177 178t-64.5 249q0 134 65 248t177.5 181t246.5 67q118 0 221.5 -51.5t172.5 -143.5l-125 -111q-107 140 -269 140q-134 0 -220.5 -93t-86.5 -233q0 -143 89 -236.5t225 -93.5q162 0 274 140l119 -107q-68 -93 -173 -146t-227 -53zM477 1110
l221 322l131 -99l-249 -297z" />
    <glyph glyph-name="Ccircumflex" unicode="&#x108;" horiz-adv-x="1394" 
d="M784 -23q-195 0 -353.5 91.5t-248.5 252t-90 357.5q0 148 54.5 281.5t148 228.5t222 151t271.5 56q152 0 284.5 -61t232.5 -173l-138 -129q-72 86 -171 131t-212 45q-213 0 -351 -147t-138 -373q0 -228 141 -376t359 -148q118 0 217.5 46.5t167.5 131.5l133 -125
q-99 -116 -234 -178t-295 -62zM487 1614l291 192l291 -192l-70 -117l-221 141l-219 -141z" />
    <glyph glyph-name="ccircumflex" unicode="&#x109;" horiz-adv-x="1032" 
d="M571 -23q-135 0 -247.5 65t-177 178t-64.5 249q0 134 65 248t177.5 181t246.5 67q118 0 221.5 -51.5t172.5 -143.5l-125 -111q-107 140 -269 140q-134 0 -220.5 -93t-86.5 -233q0 -143 89 -236.5t225 -93.5q162 0 274 140l119 -107q-68 -93 -173 -146t-227 -53zM276 1184
l291 192l291 -192l-70 -117l-221 141l-219 -141z" />
    <glyph glyph-name="Cdotaccent" unicode="&#x10a;" horiz-adv-x="1394" 
d="M784 -23q-195 0 -353.5 91.5t-248.5 252t-90 357.5q0 148 54.5 281.5t148 228.5t222 151t271.5 56q152 0 284.5 -61t232.5 -173l-138 -129q-72 86 -171 131t-212 45q-213 0 -351 -147t-138 -373q0 -228 141 -376t359 -148q118 0 217.5 46.5t167.5 131.5l133 -125
q-99 -116 -234 -178t-295 -62zM778 1550q-49 0 -82.5 33.5t-33.5 83.5q0 51 33 85t83 34t84.5 -34t34.5 -85q0 -49 -34.5 -83t-84.5 -34z" />
    <glyph glyph-name="cdotaccent" unicode="&#x10b;" horiz-adv-x="1032" 
d="M571 -23q-135 0 -247.5 65t-177 178t-64.5 249q0 134 65 248t177.5 181t246.5 67q118 0 221.5 -51.5t172.5 -143.5l-125 -111q-107 140 -269 140q-134 0 -220.5 -93t-86.5 -233q0 -143 89 -236.5t225 -93.5q162 0 274 140l119 -107q-68 -93 -173 -146t-227 -53zM567 1120
q-49 0 -82.5 33.5t-33.5 83.5q0 51 33 85t83 34t84.5 -34t34.5 -85q0 -49 -34.5 -83t-84.5 -34z" />
    <glyph glyph-name="Ccaron" unicode="&#x10c;" horiz-adv-x="1394" 
d="M784 -23q-195 0 -353.5 91.5t-248.5 252t-90 357.5q0 148 54.5 281.5t148 228.5t222 151t271.5 56q152 0 284.5 -61t232.5 -173l-138 -129q-72 86 -171 131t-212 45q-213 0 -351 -147t-138 -373q0 -228 141 -376t359 -148q118 0 217.5 46.5t167.5 131.5l133 -125
q-99 -116 -234 -178t-295 -62zM487 1671l72 117l219 -141l221 141l70 -117l-291 -192z" />
    <glyph glyph-name="ccaron" unicode="&#x10d;" horiz-adv-x="1032" 
d="M571 -23q-135 0 -247.5 65t-177 178t-64.5 249q0 134 65 248t177.5 181t246.5 67q118 0 221.5 -51.5t172.5 -143.5l-125 -111q-107 140 -269 140q-134 0 -220.5 -93t-86.5 -233q0 -143 89 -236.5t225 -93.5q162 0 274 140l119 -107q-68 -93 -173 -146t-227 -53zM276 1241
l72 117l219 -141l221 141l70 -117l-291 -192z" />
    <glyph glyph-name="Dcaron" unicode="&#x10e;" horiz-adv-x="1468" 
d="M174 1372h477q205 0 371 -89t260 -246t94 -351t-93.5 -351t-259.5 -246t-372 -89h-477v1372zM651 178q227 0 375 143.5t148 364.5t-148 364.5t-375 143.5h-286v-1016h286zM449 1671l71 117l219 -141l222 141l69 -117l-291 -192z" />
    <glyph glyph-name="dcaron" unicode="&#x10f;" horiz-adv-x="1353" 
d="M535 -23q-191 0 -322 142.5t-131 351.5q0 205 134 349.5t325 144.5q97 0 177.5 -39t137.5 -109v637h176v-1454h-170v141q-57 -77 -141 -120.5t-186 -43.5zM567 143q134 0 220.5 93t86.5 235q0 143 -86 235.5t-221 92.5q-131 0 -217 -93t-86 -235t86.5 -235t216.5 -93z
M1135 1100l73 379l166 -41l-121 -367z" />
    <glyph glyph-name="Dcroat" unicode="&#x110;" horiz-adv-x="1478" 
d="M184 608h-204v164h204v600h478q154 0 288.5 -52.5t230 -143t150.5 -218t55 -272.5t-55 -272.5t-150.5 -218t-230 -143t-288.5 -52.5h-478v608zM662 178q227 0 374.5 143.5t147.5 364.5t-147.5 364.5t-374.5 143.5h-287v-422h276v-164h-276v-430h287z" />
    <glyph glyph-name="dslash" unicode="&#x111;" horiz-adv-x="1191" 
d="M535 -23q-191 0 -322 142.5t-131 351.5q0 205 134 349.5t325 144.5q97 0 177.5 -39t137.5 -109v297h-342v160h342v180h176v-180h129v-160h-129v-1114h-170v141q-57 -77 -141 -120.5t-186 -43.5zM567 143q134 0 220.5 93t86.5 235q0 143 -86 235.5t-221 92.5
q-131 0 -217 -93t-86 -235t86.5 -235t216.5 -93z" />
    <glyph glyph-name="Emacron" unicode="&#x112;" horiz-adv-x="1038" 
d="M174 1372h731v-178h-540v-397h409v-179h-409v-440h550v-178h-741v1372zM313 1737h455v-144h-455v144z" />
    <glyph glyph-name="emacron" unicode="&#x113;" horiz-adv-x="1089" 
d="M573 -23q-216 0 -353.5 139.5t-137.5 354.5q0 213 134 353.5t339 140.5q194 0 323.5 -129.5t129.5 -331.5q0 -30 -7 -84h-735q17 -130 100.5 -203.5t217.5 -73.5q176 0 290 138l111 -105q-73 -97 -180 -148t-232 -51zM823 565q-19 116 -91 179t-183 63
q-112 0 -185.5 -64.5t-93.5 -177.5h553zM326 1307h454v-144h-454v144z" />
    <glyph glyph-name="Ebreve" unicode="&#x114;" horiz-adv-x="1038" 
d="M174 1372h731v-178h-540v-397h409v-179h-409v-440h550v-178h-741v1372zM539 1495q-119 0 -191 75t-72 199h140q0 -62 34 -99.5t89 -37.5q56 0 90.5 37.5t34.5 99.5h139q0 -126 -72 -200t-192 -74z" />
    <glyph glyph-name="ebreve" unicode="&#x115;" horiz-adv-x="1089" 
d="M573 -23q-216 0 -353.5 139.5t-137.5 354.5q0 213 134 353.5t339 140.5q194 0 323.5 -129.5t129.5 -331.5q0 -30 -7 -84h-735q17 -130 100.5 -203.5t217.5 -73.5q176 0 290 138l111 -105q-73 -97 -180 -148t-232 -51zM823 565q-19 116 -91 179t-183 63
q-112 0 -185.5 -64.5t-93.5 -177.5h553zM553 1065q-119 0 -190.5 75t-71.5 199h139q0 -62 34 -99.5t89 -37.5q56 0 90.5 37.5t34.5 99.5h139q0 -126 -72 -200t-192 -74z" />
    <glyph glyph-name="Edotaccent" unicode="&#x116;" horiz-adv-x="1038" 
d="M174 1372h731v-178h-540v-397h409v-179h-409v-440h550v-178h-741v1372zM539 1550q-49 0 -83 34t-34 83q0 51 33.5 85t83.5 34t84 -34t34 -85q0 -49 -34 -83t-84 -34z" />
    <glyph glyph-name="edotaccent" unicode="&#x117;" horiz-adv-x="1089" 
d="M573 -23q-216 0 -353.5 139.5t-137.5 354.5q0 213 134 353.5t339 140.5q194 0 323.5 -129.5t129.5 -331.5q0 -30 -7 -84h-735q17 -130 100.5 -203.5t217.5 -73.5q176 0 290 138l111 -105q-73 -97 -180 -148t-232 -51zM823 565q-19 116 -91 179t-183 63
q-112 0 -185.5 -64.5t-93.5 -177.5h553zM553 1120q-49 0 -83 34t-34 83q0 51 33.5 85t83.5 34t84.5 -34t34.5 -85q0 -49 -34.5 -83t-84.5 -34z" />
    <glyph glyph-name="Eogonek" unicode="&#x118;" horiz-adv-x="1038" 
d="M793 -522q-121 0 -191 60.5t-70 164.5q0 86 53 158t167 139h-578v1372h731v-178h-540v-397h409v-179h-409v-440h550v-178q-132 -91 -178.5 -146t-46.5 -116q0 -121 135 -121q37 0 86 12v-135q-49 -16 -118 -16z" />
    <glyph glyph-name="eogonek" unicode="&#x119;" horiz-adv-x="1089" 
d="M793 -520q-130 0 -208.5 67t-78.5 177q0 130 119 258q-40 -5 -50 -5q-216 0 -354.5 136.5t-138.5 355.5q0 214 133.5 355t337.5 141q196 0 325.5 -130t129.5 -333q0 -46 -7 -82h-735q17 -130 99.5 -203.5t216.5 -73.5q174 0 292 136l111 -105q-41 -50 -96 -96l-8 -6
q-118 -96 -166.5 -167t-48.5 -141q0 -69 43 -107t118 -38q54 0 97 14v-135q-64 -18 -131 -18zM823 565q-19 116 -91 179t-183 63q-113 0 -185.5 -65t-93.5 -177h553z" />
    <glyph glyph-name="Ecaron" unicode="&#x11a;" horiz-adv-x="1038" 
d="M174 1372h731v-178h-540v-397h409v-179h-409v-440h550v-178h-741v1372zM248 1671l71 117l220 -141l221 141l69 -117l-290 -192z" />
    <glyph glyph-name="ecaron" unicode="&#x11b;" horiz-adv-x="1089" 
d="M573 -23q-216 0 -353.5 139.5t-137.5 354.5q0 213 134 353.5t339 140.5q194 0 323.5 -129.5t129.5 -331.5q0 -30 -7 -84h-735q17 -130 100.5 -203.5t217.5 -73.5q176 0 290 138l111 -105q-73 -97 -180 -148t-232 -51zM823 565q-19 116 -91 179t-183 63
q-112 0 -185.5 -64.5t-93.5 -177.5h553zM262 1241l72 117l219 -141l221 141l70 -117l-291 -192z" />
    <glyph glyph-name="Gcircumflex" unicode="&#x11c;" horiz-adv-x="1476" 
d="M780 -20q-143 0 -270.5 54t-219 146.5t-145 222t-53.5 275.5q0 148 55 281t148 228.5t222 151.5t271 56q152 0 287 -61.5t234 -172.5l-138 -129q-73 86 -172.5 131t-212.5 45q-214 0 -352.5 -147.5t-138.5 -374.5q0 -225 142 -372.5t358 -147.5q223 0 368 158v249h-368
v179h559v-484q-104 -139 -253 -213.5t-321 -74.5zM487 1614l291 192l291 -192l-70 -117l-221 141l-219 -141z" />
    <glyph glyph-name="gcircumflex" unicode="&#x11d;" horiz-adv-x="1075" 
d="M555 -362q133 0 208 44.5t75 124.5t-73.5 125t-207.5 45q-131 0 -204.5 -44.5t-73.5 -125.5q0 -80 73 -124.5t203 -44.5zM530 410q104 0 165 55t61 147q0 93 -61 148t-165 55q-102 0 -162.5 -55t-60.5 -148q0 -92 60 -147t163 -55zM555 -512q-205 0 -329 86t-124 227
q0 161 156 238q-131 49 -131 164q0 111 111 162q-107 99 -107 247q0 156 113 254.5t293 98.5q72 0 149 -23h328v-139h-140q58 -76 58 -189q0 -156 -112.5 -255t-287.5 -99q-97 0 -176 33q-65 -12 -65 -76q0 -90 170 -90h131q195 0 308.5 -85t113.5 -228q0 -149 -125 -237.5
t-334 -88.5zM264 1184l291 192l291 -192l-70 -117l-221 141l-219 -141z" />
    <glyph glyph-name="Gbreve" unicode="&#x11e;" horiz-adv-x="1476" 
d="M780 -20q-143 0 -270.5 54t-219 146.5t-145 222t-53.5 275.5q0 148 55 281t148 228.5t222 151.5t271 56q152 0 287 -61.5t234 -172.5l-138 -129q-73 86 -172.5 131t-212.5 45q-214 0 -352.5 -147.5t-138.5 -374.5q0 -225 142 -372.5t358 -147.5q223 0 368 158v249h-368
v179h559v-484q-104 -139 -253 -213.5t-321 -74.5zM778 1495q-119 0 -190.5 75t-71.5 199h139q0 -62 34 -99.5t89 -37.5q56 0 90.5 37.5t34.5 99.5h139q0 -126 -72 -200t-192 -74z" />
    <glyph glyph-name="gbreve" unicode="&#x11f;" horiz-adv-x="1075" 
d="M555 -362q133 0 208 44.5t75 124.5t-73.5 125t-207.5 45q-131 0 -204.5 -44.5t-73.5 -125.5q0 -80 73 -124.5t203 -44.5zM530 410q104 0 165 55t61 147q0 93 -61 148t-165 55q-102 0 -162.5 -55t-60.5 -148q0 -92 60 -147t163 -55zM555 -512q-205 0 -329 86t-124 227
q0 161 156 238q-131 49 -131 164q0 111 111 162q-107 99 -107 247q0 156 113 254.5t293 98.5q72 0 149 -23h328v-139h-140q58 -76 58 -189q0 -156 -112.5 -255t-287.5 -99q-97 0 -176 33q-65 -12 -65 -76q0 -90 170 -90h131q195 0 308.5 -85t113.5 -228q0 -149 -125 -237.5
t-334 -88.5zM553 1065q-119 0 -190.5 75t-71.5 199h139q0 -62 34 -99.5t89 -37.5q56 0 90.5 37.5t34.5 99.5h139q0 -126 -72 -200t-192 -74z" />
    <glyph glyph-name="Gdotaccent" unicode="&#x120;" horiz-adv-x="1476" 
d="M780 -20q-143 0 -270.5 54t-219 146.5t-145 222t-53.5 275.5q0 148 55 281t148 228.5t222 151.5t271 56q152 0 287 -61.5t234 -172.5l-138 -129q-73 86 -172.5 131t-212.5 45q-214 0 -352.5 -147.5t-138.5 -374.5q0 -225 142 -372.5t358 -147.5q223 0 368 158v249h-368
v179h559v-484q-104 -139 -253 -213.5t-321 -74.5zM778 1550q-49 0 -82.5 33.5t-33.5 83.5q0 51 33 85t83 34t84.5 -34t34.5 -85q0 -49 -34.5 -83t-84.5 -34z" />
    <glyph glyph-name="gdotaccent" unicode="&#x121;" horiz-adv-x="1075" 
d="M555 -362q133 0 208 44.5t75 124.5t-73.5 125t-207.5 45q-131 0 -204.5 -44.5t-73.5 -125.5q0 -80 73 -124.5t203 -44.5zM530 410q104 0 165 55t61 147q0 93 -61 148t-165 55q-102 0 -162.5 -55t-60.5 -148q0 -92 60 -147t163 -55zM555 -512q-205 0 -329 86t-124 227
q0 161 156 238q-131 49 -131 164q0 111 111 162q-107 99 -107 247q0 156 113 254.5t293 98.5q72 0 149 -23h328v-139h-140q58 -76 58 -189q0 -156 -112.5 -255t-287.5 -99q-97 0 -176 33q-65 -12 -65 -76q0 -90 170 -90h131q195 0 308.5 -85t113.5 -228q0 -149 -125 -237.5
t-334 -88.5zM553 1120q-49 0 -83 34t-34 83q0 51 33.5 85t83.5 34t84.5 -34t34.5 -85q0 -49 -34.5 -83t-84.5 -34z" />
    <glyph glyph-name="Gcommaaccent" unicode="&#x122;" horiz-adv-x="1476" 
d="M780 -20q-143 0 -270.5 54t-219 146.5t-145 222t-53.5 275.5q0 148 55 281t148 228.5t222 151.5t271 56q152 0 287 -61.5t234 -172.5l-138 -129q-73 86 -172.5 131t-212.5 45q-214 0 -352.5 -147.5t-138.5 -374.5q0 -225 142 -372.5t358 -147.5q223 0 368 158v249h-368
v179h559v-484q-104 -139 -253 -213.5t-321 -74.5zM604 -510l84 408l166 -43l-131 -398z" />
    <glyph glyph-name="gcommaaccent" unicode="&#x123;" horiz-adv-x="1075" 
d="M555 -362q133 0 208 44.5t75 124.5t-73.5 125t-207.5 45q-131 0 -204.5 -44.5t-73.5 -125.5q0 -80 73 -124.5t203 -44.5zM530 410q104 0 165 55t61 147q0 93 -61 148t-165 55q-102 0 -162.5 -55t-60.5 -148q0 -92 60 -147t163 -55zM555 -512q-205 0 -329 86t-124 227
q0 161 156 238q-131 52 -131 166q0 112 111 160q-107 99 -107 247q0 156 113 254.5t293 98.5q72 0 149 -23h328v-139h-140q58 -76 58 -189q0 -156 -112.5 -255t-287.5 -99q-97 0 -176 33q-65 -12 -65 -76q0 -90 170 -90h131q195 0 308.5 -85t113.5 -228q0 -149 -125 -237.5
t-334 -88.5zM473 1104l135 393l115 -31l-84 -409z" />
    <glyph glyph-name="Hcircumflex" unicode="&#x124;" horiz-adv-x="1406" 
d="M174 1372h191v-590h677v590h191v-1372h-191v604h-677v-604h-191v1372zM412 1614l290 192l291 -192l-69 -117l-222 141l-219 -141z" />
    <glyph glyph-name="hcircumflex" unicode="&#x125;" horiz-adv-x="1064" 
d="M133 1454h176v-633q114 144 281 144q155 0 255.5 -109.5t100.5 -275.5v-580h-176v547q0 117 -62.5 187.5t-166.5 70.5t-168 -71.5t-64 -188.5v-545h-176v1454zM256 1655l291 192l291 -192l-70 -117l-221 141l-219 -141z" />
    <glyph glyph-name="Hbar" unicode="&#x126;" horiz-adv-x="1425" 
d="M184 993h-143v164h143v215h191v-215h676v215h190v-215h143v-164h-143v-993h-190v604h-676v-604h-191v993zM1051 782v211h-676v-211h676z" />
    <glyph glyph-name="hbar" unicode="&#x127;" horiz-adv-x="1081" 
d="M147 1114h-127v160h127v180h177v-180h344v-160h-344v-293q114 144 280 144q153 0 253.5 -109.5t100.5 -275.5v-580h-176v547q0 117 -61.5 187.5t-165.5 70.5t-167.5 -71.5t-63.5 -188.5v-545h-177v1114z" />
    <glyph glyph-name="Imacron" unicode="&#x12a;" horiz-adv-x="536" 
d="M174 1372h191v-1372h-191v1372zM41 1737h455v-144h-455v144z" />
    <glyph glyph-name="imacron" unicode="&#x12b;" horiz-adv-x="444" 
d="M137 942h176v-942h-176v942zM0 1307h455v-144h-455v144z" />
    <glyph glyph-name="Ibreve" unicode="&#x12c;" horiz-adv-x="546" 
d="M174 1372h191v-1372h-191v1372zM272 1495q-119 0 -190.5 75t-71.5 199h140q0 -62 33.5 -99.5t88.5 -37.5q56 0 90.5 37.5t34.5 99.5h140q0 -126 -72.5 -200t-192.5 -74z" />
    <glyph glyph-name="ibreve" unicode="&#x12d;" horiz-adv-x="444" 
d="M131 942h176v-942h-176v942zM221 1065q-119 0 -190.5 75t-71.5 199h139q0 -62 34 -99.5t89 -37.5q56 0 90.5 37.5t34.5 99.5h139q0 -126 -72 -200t-192 -74z" />
    <glyph glyph-name="Iogonek" unicode="&#x12e;" horiz-adv-x="544" 
d="M295 -522q-122 0 -193 62t-71 167q0 164 192 293h-45v1372h191v-1372q-103 -92 -141 -146t-38 -108q0 -62 36 -95.5t102 -33.5q34 0 84 12v-135q-47 -16 -117 -16z" />
    <glyph glyph-name="iogonek" unicode="&#x12f;" horiz-adv-x="442" 
d="M233 -522q-121 0 -192.5 62t-71.5 167q0 163 193 293h-31v942h176v-942q-102 -90 -139 -144.5t-37 -109.5q0 -62 34.5 -95.5t100.5 -33.5q38 0 84 12v-135q-47 -16 -117 -16zM219 1120q-49 0 -83 34t-34 83q0 51 34 85t85 34q48 0 82.5 -34.5t34.5 -84.5q0 -49 -34.5 -83
t-84.5 -34z" />
    <glyph glyph-name="Idot" unicode="&#x130;" horiz-adv-x="542" 
d="M174 1372h191v-1372h-191v1372zM270 1550q-49 0 -82.5 33.5t-33.5 83.5q0 51 33 85t83 34t84.5 -34t34.5 -85q0 -49 -34.5 -83t-84.5 -34z" />
    <glyph glyph-name="dotlessi" unicode="&#x131;" horiz-adv-x="442" 
d="M133 942h176v-942h-176v942z" />
    <glyph glyph-name="uni0132" unicode="&#x132;" horiz-adv-x="1462" 
d="M174 1372h191v-1372h-191v1372zM899 -23q-229 0 -338 195l144 119q77 -135 196 -135q96 0 151.5 69.5t55.5 188.5v780h-385v178h575v-956q0 -196 -110 -317.5t-289 -121.5z" />
    <glyph glyph-name="uni0133" unicode="&#x133;" horiz-adv-x="888" 
d="M131 942h176v-942h-176v942zM485 -512q-111 0 -192 78l86 143q52 -55 100 -55q49 0 75 37t26 100v1151h176v-1157q0 -134 -73.5 -215.5t-197.5 -81.5zM219 1120q-49 0 -83 34t-34 83q0 51 34 85t85 34q48 0 82.5 -34.5t34.5 -84.5q0 -49 -34.5 -83t-84.5 -34zM668 1120
q-48 0 -82.5 34t-34.5 83q0 51 34.5 85t84.5 34q48 0 82 -34.5t34 -84.5q0 -49 -34 -83t-84 -34z" />
    <glyph glyph-name="Jcircumflex" unicode="&#x134;" horiz-adv-x="923" 
d="M360 -23q-228 0 -340 195l144 119q76 -135 198 -135q94 0 150.5 70t56.5 188v780h-385v178h576v-956q0 -196 -110.5 -317.5t-289.5 -121.5zM178 1614l291 192l291 -192l-70 -117l-221 141l-219 -141z" />
    <glyph glyph-name="jcircumflex" unicode="&#x135;" horiz-adv-x="440" 
d="M39 -512q-112 0 -193 78l86 143q52 -55 99 -55q50 0 76 37t26 100v1151h176v-1157q0 -134 -73 -215.5t-197 -81.5zM-70 1186l291 190l291 -190l-70 -117l-221 141l-219 -141z" />
    <glyph glyph-name="Kcommaaccent" unicode="&#x136;" horiz-adv-x="1153" 
d="M174 1372h191v-627l520 627h229l-547 -657l576 -715h-242l-536 666v-666h-191v1372zM451 -510l84 408l165 -43l-131 -398z" />
    <glyph glyph-name="kcommaaccent" unicode="&#x137;" horiz-adv-x="935" 
d="M133 1454h176v-950l385 438h207l-399 -446l424 -496h-228l-389 457v-457h-176v1454zM330 -510l84 408l166 -43l-131 -398z" />
    <glyph glyph-name="Lacute" unicode="&#x139;" horiz-adv-x="976" 
d="M174 1372h191v-1194h530v-178h-721v1372zM178 1540l221 322l131 -99l-249 -297z" />
    <glyph glyph-name="lacute" unicode="&#x13a;" horiz-adv-x="444" 
d="M133 1454h176v-1454h-176v1454zM133 1581l221 322l131 -99l-249 -297z" />
    <glyph glyph-name="Lcommaaccent" unicode="&#x13b;" horiz-adv-x="976" 
d="M174 1372h191v-1194h530v-178h-721v1372zM358 -510l84 408l166 -43l-131 -398z" />
    <glyph glyph-name="lcommaaccent" unicode="&#x13c;" horiz-adv-x="442" 
d="M133 1454h176v-1454h-176v1454zM51 -510l84 408l166 -43l-131 -398z" />
    <glyph glyph-name="Lcaron" unicode="&#x13d;" horiz-adv-x="976" 
d="M174 1372h191v-1194h530v-178h-721v1372zM467 1018l74 379l166 -41l-121 -367z" />
    <glyph glyph-name="lcaron" unicode="&#x13e;" horiz-adv-x="632" 
d="M133 1454h176v-1454h-176v1454zM414 1100l73 379l166 -41l-121 -367z" />
    <glyph glyph-name="Ldot" unicode="&#x13f;" horiz-adv-x="976" 
d="M754 610q-52 0 -86.5 35t-34.5 88q0 54 34.5 88.5t88.5 34.5t88.5 -34.5t34.5 -88.5t-35.5 -88.5t-89.5 -34.5zM174 1372h191v-1194h530v-178h-721v1372z" />
    <glyph glyph-name="ldot" unicode="&#x140;" horiz-adv-x="686" 
d="M561 604q-51 0 -86 35t-35 88q0 54 34.5 88.5t88.5 34.5t88.5 -34.5t34.5 -88.5t-35.5 -88.5t-89.5 -34.5zM133 1454h176v-1454h-176v1454z" />
    <glyph glyph-name="Lslash" unicode="&#x141;" horiz-adv-x="985" 
d="M184 526l-143 -82v174l143 84v670h191v-561l252 145v-176l-252 -143v-459h528v-178h-719v526z" />
    <glyph glyph-name="lslash" unicode="&#x142;" horiz-adv-x="493" 
d="M154 629l-144 -82v168l144 82v657h176v-555l143 82v-168l-143 -82v-731h-176v629z" />
    <glyph glyph-name="Nacute" unicode="&#x143;" horiz-adv-x="1482" 
d="M365 981v-981h-191v1409h70l874 -1018v981h191v-1409h-70zM649 1540l221 322l131 -99l-249 -297z" />
    <glyph glyph-name="nacute" unicode="&#x144;" 
d="M133 942h172v-127q114 150 285 150q155 0 255.5 -109.5t100.5 -275.5v-580h-176v547q0 117 -62.5 187.5t-166.5 70.5t-168 -71.5t-64 -188.5v-545h-176v942zM446 1110l222 322l131 -99l-250 -297z" />
    <glyph glyph-name="Ncommaaccent" unicode="&#x145;" horiz-adv-x="1482" 
d="M365 981v-981h-191v1409h70l874 -1018v981h191v-1409h-70zM569 -510l84 408l166 -43l-131 -398z" />
    <glyph glyph-name="ncommaaccent" unicode="&#x146;" 
d="M133 942h172v-127q114 150 285 150q155 0 255.5 -109.5t100.5 -275.5v-580h-176v547q0 117 -62.5 187.5t-166.5 70.5t-168 -71.5t-64 -188.5v-545h-176v942zM367 -510l84 408l165 -43l-131 -398z" />
    <glyph glyph-name="Ncaron" unicode="&#x147;" horiz-adv-x="1482" 
d="M365 981v-981h-191v1409h70l874 -1018v981h191v-1409h-70zM451 1671l71 117l219 -141l222 141l69 -117l-291 -192z" />
    <glyph glyph-name="ncaron" unicode="&#x148;" 
d="M133 942h172v-127q114 150 285 150q155 0 255.5 -109.5t100.5 -275.5v-580h-176v547q0 117 -62.5 187.5t-166.5 70.5t-168 -71.5t-64 -188.5v-545h-176v942zM248 1241l71 117l220 -141l221 141l69 -117l-290 -192z" />
    <glyph glyph-name="napostrophe" unicode="&#x149;" horiz-adv-x="1128" 
d="M193 942h172v-127q114 150 284 150q155 0 256 -109.5t101 -275.5v-580h-177v547q0 117 -62.5 187.5t-166.5 70.5t-167.5 -71.5t-63.5 -188.5v-545h-176v942zM31 1069l73 379l166 -41l-120 -367z" />
    <glyph glyph-name="Eng" unicode="&#x14a;" horiz-adv-x="1482" 
d="M909 -512q-229 0 -338 195l144 118q77 -135 203 -135q96 0 152 69.5t56 188.5v76l-761 965v-965h-191v1409h70l874 -1106v1069h191v-1446q0 -196 -110.5 -317t-289.5 -121z" />
    <glyph glyph-name="eng" unicode="&#x14b;" 
d="M674 -512q-112 0 -193 78l86 143q52 -55 101 -55t75.5 37t26.5 100v756q0 117 -62.5 187.5t-166.5 70.5t-168 -71.5t-64 -188.5v-545h-176v942h172v-127q114 150 285 150q155 0 255.5 -109.5t100.5 -275.5v-795q0 -134 -74 -215.5t-198 -81.5z" />
    <glyph glyph-name="Omacron" unicode="&#x14c;" horiz-adv-x="1572" 
d="M788 -23q-143 0 -272 55.5t-222 150.5t-147.5 226t-54.5 277q0 145 55 276t147.5 226t221.5 151t272 56q142 0 270.5 -55.5t221 -150.5t147 -226t54.5 -277q0 -193 -92.5 -356.5t-252 -258t-348.5 -94.5zM786 164q212 0 352 148t140 374q0 224 -140.5 373t-351.5 149
q-213 0 -352 -148.5t-139 -373.5t139 -373.5t352 -148.5zM559 1737h455v-144h-455v144z" />
    <glyph glyph-name="omacron" unicode="&#x14d;" horiz-adv-x="1140" 
d="M571 -23q-134 0 -246.5 66.5t-177.5 180t-65 247.5t65 247.5t177.5 180t246.5 66.5q202 0 345 -145t143 -349t-143 -349t-345 -145zM571 143q133 0 219.5 92.5t86.5 235.5t-86.5 235.5t-219.5 92.5q-135 0 -221 -92.5t-86 -235.5t86 -235.5t221 -92.5zM342 1307h455v-144
h-455v144z" />
    <glyph glyph-name="Obreve" unicode="&#x14e;" horiz-adv-x="1572" 
d="M788 -23q-143 0 -272 55.5t-222 150.5t-147.5 226t-54.5 277q0 145 55 276t147.5 226t221.5 151t272 56q142 0 270.5 -55.5t221 -150.5t147 -226t54.5 -277q0 -193 -92.5 -356.5t-252 -258t-348.5 -94.5zM786 164q212 0 352 148t140 374q0 224 -140.5 373t-351.5 149
q-213 0 -352 -148.5t-139 -373.5t139 -373.5t352 -148.5zM784 1495q-119 0 -190.5 75t-71.5 199h140q0 -62 33.5 -99.5t88.5 -37.5q56 0 90.5 37.5t34.5 99.5h140q0 -126 -72.5 -200t-192.5 -74z" />
    <glyph glyph-name="obreve" unicode="&#x14f;" horiz-adv-x="1140" 
d="M571 -23q-134 0 -246.5 66.5t-177.5 180t-65 247.5t65 247.5t177.5 180t246.5 66.5q202 0 345 -145t143 -349t-143 -349t-345 -145zM571 143q133 0 219.5 92.5t86.5 235.5t-86.5 235.5t-219.5 92.5q-135 0 -221 -92.5t-86 -235.5t86 -235.5t221 -92.5zM569 1065
q-119 0 -190.5 75t-71.5 199h139q0 -62 34 -99.5t89 -37.5q56 0 90.5 37.5t34.5 99.5h140q0 -126 -72.5 -200t-192.5 -74z" />
    <glyph glyph-name="Ohungarumlaut" unicode="&#x150;" horiz-adv-x="1572" 
d="M788 -23q-143 0 -272 55.5t-222 150.5t-147.5 226t-54.5 277q0 145 55 276t147.5 226t221.5 151t272 56q142 0 270.5 -55.5t221 -150.5t147 -226t54.5 -277q0 -193 -92.5 -356.5t-252 -258t-348.5 -94.5zM786 164q212 0 352 148t140 374q0 224 -140.5 373t-351.5 149
q-213 0 -352 -148.5t-139 -373.5t139 -373.5t352 -148.5zM555 1528l180 315l137 -84l-206 -297zM834 1528l180 315l137 -84l-207 -297z" />
    <glyph glyph-name="ohungarumlaut" unicode="&#x151;" horiz-adv-x="1140" 
d="M571 -23q-134 0 -246.5 66.5t-177.5 180t-65 247.5t65 247.5t177.5 180t246.5 66.5q202 0 345 -145t143 -349t-143 -349t-345 -145zM571 143q133 0 219.5 92.5t86.5 235.5t-86.5 235.5t-219.5 92.5q-135 0 -221 -92.5t-86 -235.5t86 -235.5t221 -92.5zM340 1098l180 315
l137 -84l-206 -297zM618 1098l181 315l137 -84l-207 -297z" />
    <glyph glyph-name="OE" unicode="&#x152;" horiz-adv-x="1675" 
d="M811 0q-204 0 -368.5 88.5t-257.5 245.5t-93 352t93.5 352t258 245.5t367.5 88.5h731v-178h-541v-397h408v-179h-408v-440h551v-178h-741zM811 1194q-229 0 -372.5 -141t-143.5 -367t143.5 -367t372.5 -141v1016z" />
    <glyph glyph-name="oe" unicode="&#x153;" horiz-adv-x="1886" 
d="M571 -23q-134 0 -246.5 66.5t-177.5 180t-65 247.5t65 247.5t177.5 180t246.5 66.5q121 0 224 -53.5t170 -147.5q63 94 163 147.5t222 53.5q194 0 324 -129.5t130 -331.5q0 -48 -8 -84h-733q17 -130 99 -203.5t216 -73.5q176 0 293 138l111 -105q-74 -97 -181.5 -148
t-232.5 -51q-131 0 -235 53.5t-168 149.5q-67 -94 -170 -148.5t-224 -54.5zM571 143q135 0 221.5 92.5t86.5 235.5t-86.5 235.5t-221.5 92.5t-221 -92.5t-86 -235.5t86 -235.5t221 -92.5zM1620 565q-19 116 -92.5 179t-184.5 63t-183.5 -64t-92.5 -178h553z" />
    <glyph glyph-name="Racute" unicode="&#x154;" horiz-adv-x="1169" 
d="M174 1372h361q209 0 343 -117t134 -299q0 -134 -76.5 -238t-206.5 -147l369 -571h-226l-348 541h-159v-541h-191v1372zM528 719q135 0 214 63.5t79 173.5q0 109 -79.5 173.5t-213.5 64.5h-163v-475h163zM469 1540l221 322l131 -99l-250 -297z" />
    <glyph glyph-name="racute" unicode="&#x155;" horiz-adv-x="667" 
d="M133 942h172v-137q100 160 266 160q15 0 64 -7l-29 -192q-37 12 -71 12q-103 0 -164.5 -63.5t-61.5 -173.5v-541h-176v942zM295 1110l221 322l131 -99l-250 -297z" />
    <glyph glyph-name="Rcommaaccent" unicode="&#x156;" horiz-adv-x="1169" 
d="M174 1372h361q209 0 343 -117t134 -299q0 -134 -76.5 -238t-206.5 -147l369 -571h-226l-348 541h-159v-541h-191v1372zM528 719q135 0 214 63.5t79 173.5q0 109 -79.5 173.5t-213.5 64.5h-163v-475h163zM434 -510l84 408l166 -43l-131 -398z" />
    <glyph glyph-name="rcommaaccent" unicode="&#x157;" horiz-adv-x="655" 
d="M133 942h172v-137q100 160 266 160q15 0 64 -7l-29 -192q-37 12 -71 12q-103 0 -164.5 -63.5t-61.5 -173.5v-541h-176v942zM51 -510l84 408l166 -43l-131 -398z" />
    <glyph glyph-name="Rcaron" unicode="&#x158;" horiz-adv-x="1169" 
d="M174 1372h361q209 0 343 -117t134 -299q0 -134 -76.5 -238t-206.5 -147l369 -571h-226l-348 541h-159v-541h-191v1372zM528 719q135 0 214 63.5t79 173.5q0 109 -79.5 173.5t-213.5 64.5h-163v-475h163zM291 1671l71 117l220 -141l221 141l69 -117l-290 -192z" />
    <glyph glyph-name="rcaron" unicode="&#x159;" horiz-adv-x="663" 
d="M133 942h172v-137q100 160 266 160q15 0 64 -7l-29 -192q-37 12 -71 12q-103 0 -164.5 -63.5t-61.5 -173.5v-541h-176v942zM92 1241l72 117l219 -141l221 141l70 -117l-291 -192z" />
    <glyph glyph-name="Sacute" unicode="&#x15a;" horiz-adv-x="1040" 
d="M516 -25q-147 0 -267 67t-198 194l144 118q127 -200 323 -200q110 0 175 53.5t65 146.5q0 82 -59.5 142.5t-198.5 115.5q-189 78 -275 176t-86 234q0 164 110 268.5t283 104.5q245 0 408 -211l-139 -121q-116 154 -271 154q-93 0 -146.5 -48.5t-53.5 -132.5
q0 -80 57 -137t191 -111q192 -78 281 -179t89 -240q0 -173 -121 -283.5t-311 -110.5zM451 1540l221 322l131 -99l-250 -297z" />
    <glyph glyph-name="sacute" unicode="&#x15b;" horiz-adv-x="915" 
d="M463 -23q-127 0 -233.5 49t-178.5 144l117 121q124 -154 303 -154q85 0 135.5 31.5t50.5 85.5q0 49 -45.5 79.5t-152.5 57.5q-182 44 -264 115t-82 182q0 127 93 202t249 75q225 0 372 -162l-112 -119q-104 121 -266 121q-75 0 -117.5 -27.5t-42.5 -75.5q0 -49 44 -78.5
t150 -56.5q184 -42 267.5 -114.5t83.5 -184.5q0 -130 -102.5 -210.5t-268.5 -80.5zM377 1110l221 322l131 -99l-250 -297z" />
    <glyph glyph-name="Scircumflex" unicode="&#x15c;" horiz-adv-x="1040" 
d="M516 -25q-147 0 -267 67t-198 194l144 118q127 -200 323 -200q110 0 175 53.5t65 146.5q0 82 -59.5 142.5t-198.5 115.5q-189 78 -275 176t-86 234q0 164 110 268.5t283 104.5q245 0 408 -211l-139 -121q-116 154 -271 154q-93 0 -146.5 -48.5t-53.5 -132.5
q0 -80 57 -137t191 -111q192 -78 281 -179t89 -240q0 -173 -121 -283.5t-311 -110.5zM250 1614l291 192l290 -192l-69 -117l-221 141l-219 -141z" />
    <glyph glyph-name="scircumflex" unicode="&#x15d;" horiz-adv-x="915" 
d="M463 -23q-127 0 -233.5 49t-178.5 144l117 121q124 -154 303 -154q85 0 135.5 31.5t50.5 85.5q0 49 -45.5 79.5t-152.5 57.5q-182 44 -264 115t-82 182q0 127 93 202t249 75q225 0 372 -162l-112 -119q-104 121 -266 121q-75 0 -117.5 -27.5t-42.5 -75.5q0 -49 44 -78.5
t150 -56.5q184 -42 267.5 -114.5t83.5 -184.5q0 -130 -102.5 -210.5t-268.5 -80.5zM176 1184l291 192l291 -192l-70 -117l-221 141l-219 -141z" />
    <glyph glyph-name="Scedilla" unicode="&#x15e;" horiz-adv-x="1040" 
d="M498 -522q-45 0 -89 13t-66.5 26.5t-25.5 19.5l43 113q7 -7 19.5 -16t42 -21t59.5 -12q47 0 77 24.5t30 61.5t-33 62.5t-84 25.5h-80l55 205q-123 13 -224.5 79t-170.5 177l144 118q128 -202 323 -202q109 0 174.5 54.5t65.5 147.5q0 82 -59.5 142.5t-198.5 115.5
q-189 78 -275 176t-86 234q0 164 110 268.5t283 104.5q245 0 408 -211l-139 -121q-116 154 -271 154q-93 0 -146.5 -48.5t-53.5 -132.5q0 -80 57 -137t191 -111q192 -78 281 -179t89 -240q0 -158 -101.5 -265t-266.5 -124l-27 -97q81 -18 128.5 -69.5t47.5 -128.5
q0 -91 -64.5 -149t-166.5 -58z" />
    <glyph glyph-name="scedilla" unicode="&#x15f;" horiz-adv-x="915" 
d="M438 -522q-46 0 -89.5 13.5t-64 25.5t-28.5 20l45 113q7 -7 19.5 -16t42 -21t59.5 -12q47 0 75.5 24.5t28.5 61.5t-32 62.5t-82 25.5h-82l59 209q-211 21 -338 186l117 121q124 -154 303 -154q85 0 135.5 31.5t50.5 85.5q0 49 -45.5 79.5t-152.5 57.5q-182 44 -264 115
t-82 182q0 127 93 202t249 75q225 0 372 -162l-112 -119q-104 121 -266 121q-75 0 -117.5 -27.5t-42.5 -75.5q0 -49 44 -78.5t150 -56.5q184 -42 267.5 -114.5t83.5 -184.5q0 -120 -86 -197t-228 -89l-26 -99q80 -18 127 -70t47 -128q0 -91 -64 -149t-166 -58z" />
    <glyph glyph-name="Scaron" unicode="&#x160;" horiz-adv-x="1040" 
d="M516 -25q-147 0 -267 67t-198 194l144 118q127 -200 323 -200q110 0 175 53.5t65 146.5q0 82 -59.5 142.5t-198.5 115.5q-189 78 -275 176t-86 234q0 164 110 268.5t283 104.5q245 0 408 -211l-139 -121q-116 154 -271 154q-93 0 -146.5 -48.5t-53.5 -132.5
q0 -80 57 -137t191 -111q192 -78 281 -179t89 -240q0 -173 -121 -283.5t-311 -110.5zM250 1671l72 117l219 -141l221 141l69 -117l-290 -192z" />
    <glyph glyph-name="scaron" unicode="&#x161;" horiz-adv-x="915" 
d="M463 -23q-127 0 -233.5 49t-178.5 144l117 121q124 -154 303 -154q85 0 135.5 31.5t50.5 85.5q0 49 -45.5 79.5t-152.5 57.5q-182 44 -264 115t-82 182q0 127 93 202t249 75q225 0 372 -162l-112 -119q-104 121 -266 121q-75 0 -117.5 -27.5t-42.5 -75.5q0 -49 44 -78.5
t150 -56.5q184 -42 267.5 -114.5t83.5 -184.5q0 -130 -102.5 -210.5t-268.5 -80.5zM176 1241l72 117l219 -141l221 141l70 -117l-291 -192z" />
    <glyph glyph-name="uni0162" unicode="&#x162;" horiz-adv-x="1167" 
d="M565 -522q-46 0 -89.5 13.5t-64 25.5t-28.5 20l45 113q7 -7 19.5 -16t42 -21t59.5 -12q47 0 75.5 24.5t28.5 61.5t-32 62.5t-82 25.5h-82l63 225h-31v1194h-438v178h1065v-178h-436v-1194h-29l-30 -117q80 -18 127 -70t47 -128q0 -91 -64 -149t-166 -58z" />
    <glyph glyph-name="uni0163" unicode="&#x163;" horiz-adv-x="759" 
d="M428 -522q-46 0 -89.5 13.5t-64 25.5t-28.5 20l45 113q7 -7 19.5 -16t42 -21t59.5 -12q47 0 75.5 24.5t28.5 61.5t-32.5 62.5t-82.5 25.5h-82l62 219q-86 26 -131 98.5t-45 181.5v508h-144v160h144v254h176v-254h268v-160h-268v-497q0 -72 32.5 -110t94.5 -38
q77 0 139 62l82 -117q-87 -96 -219 -102l-27 -97q80 -18 127 -70t47 -128q0 -91 -63.5 -149t-165.5 -58z" />
    <glyph glyph-name="Tcaron" unicode="&#x164;" horiz-adv-x="1167" 
d="M489 1194h-438v178h1065v-178h-436v-1194h-191v1194zM291 1671l71 117l220 -141l221 141l69 -117l-290 -192z" />
    <glyph glyph-name="tcaron" unicode="&#x165;" horiz-adv-x="759" 
d="M485 -23q-132 0 -206 79.5t-74 217.5v508h-144v160h144v254h176v-254h268v-160h-268v-497q0 -72 32.5 -110t94.5 -38q77 0 139 62l82 -117q-94 -105 -244 -105zM479 1100l74 379l166 -41l-121 -367z" />
    <glyph glyph-name="Tbar" unicode="&#x166;" horiz-adv-x="1167" 
d="M489 590h-245v160h245v444h-438v178h1065v-178h-436v-444h246v-160h-246v-590h-191v590z" />
    <glyph glyph-name="tbar" unicode="&#x167;" horiz-adv-x="770" 
d="M485 -23q-132 0 -206 79.5t-74 217.5v166h-103v160h103v182h-144v160h144v254h176v-254h268v-160h-268v-182h223v-160h-223v-155q0 -72 32.5 -110t94.5 -38q77 0 139 62l82 -117q-94 -105 -244 -105z" />
    <glyph glyph-name="Umacron" unicode="&#x16a;" horiz-adv-x="1366" 
d="M688 -23q-238 0 -381 159.5t-143 420.5v815h190v-805q0 -184 91.5 -297.5t234.5 -113.5q148 0 240 113t92 298v805h190v-815q0 -258 -143 -419t-371 -161zM455 1737h454v-144h-454v144z" />
    <glyph glyph-name="umacron" unicode="&#x16b;" 
d="M479 -23q-155 0 -255.5 109.5t-100.5 275.5v580h176v-547q0 -117 62.5 -187.5t166.5 -70.5t168 71.5t64 188.5v545h176v-942h-172v127q-114 -150 -285 -150zM305 1307h455v-144h-455v144z" />
    <glyph glyph-name="Ubreve" unicode="&#x16c;" horiz-adv-x="1366" 
d="M688 -23q-238 0 -381 159.5t-143 420.5v815h190v-805q0 -184 91.5 -297.5t234.5 -113.5q148 0 240 113t92 298v805h190v-815q0 -258 -143 -419t-371 -161zM680 1495q-119 0 -190.5 75t-71.5 199h139q0 -62 34 -99.5t89 -37.5q56 0 90.5 37.5t34.5 99.5h139
q0 -126 -72 -200t-192 -74z" />
    <glyph glyph-name="ubreve" unicode="&#x16d;" 
d="M479 -23q-155 0 -255.5 109.5t-100.5 275.5v580h176v-547q0 -117 62.5 -187.5t166.5 -70.5t168 71.5t64 188.5v545h176v-942h-172v127q-114 -150 -285 -150zM532 1065q-119 0 -190.5 75t-71.5 199h140q0 -62 33.5 -99.5t88.5 -37.5q56 0 90.5 37.5t34.5 99.5h140
q0 -126 -72.5 -200t-192.5 -74z" />
    <glyph glyph-name="Uring" unicode="&#x16e;" horiz-adv-x="1366" 
d="M688 -23q-238 0 -381 159.5t-143 420.5v815h190v-805q0 -184 91.5 -297.5t234.5 -113.5q148 0 240 113t92 298v805h190v-815q0 -258 -143 -419t-371 -161zM680 1444q-90 0 -152.5 60t-62.5 147q0 85 62.5 146t152.5 61q91 0 154 -60.5t63 -146.5q0 -87 -62.5 -147
t-154.5 -60zM680 1556q41 0 68.5 27t27.5 68t-27.5 67.5t-68.5 26.5t-67.5 -26.5t-26.5 -67.5t26.5 -68t67.5 -27z" />
    <glyph glyph-name="uring" unicode="&#x16f;" 
d="M479 -23q-155 0 -255.5 109.5t-100.5 275.5v580h176v-547q0 -117 62.5 -187.5t166.5 -70.5t168 71.5t64 188.5v545h176v-942h-172v127q-114 -150 -285 -150zM530 1014q-90 0 -152.5 60t-62.5 147q0 85 62.5 145.5t152.5 60.5q91 0 154.5 -60t63.5 -146q0 -87 -63 -147
t-155 -60zM530 1126q41 0 69 27t28 68t-27.5 67.5t-69.5 26.5q-41 0 -67.5 -26.5t-26.5 -67.5t26.5 -68t67.5 -27z" />
    <glyph glyph-name="Uhungarumlaut" unicode="&#x170;" horiz-adv-x="1366" 
d="M688 -23q-238 0 -381 159.5t-143 420.5v815h190v-805q0 -184 91.5 -297.5t234.5 -113.5q148 0 240 113t92 298v805h190v-815q0 -258 -143 -419t-371 -161zM451 1528l180 315l137 -84l-207 -297zM729 1528l180 315l138 -84l-207 -297z" />
    <glyph glyph-name="uhungarumlaut" unicode="&#x171;" 
d="M479 -23q-155 0 -255.5 109.5t-100.5 275.5v580h176v-547q0 -117 62.5 -187.5t166.5 -70.5t168 71.5t64 188.5v545h176v-942h-172v127q-114 -150 -285 -150zM301 1098l180 315l137 -84l-206 -297zM580 1098l180 315l137 -84l-207 -297z" />
    <glyph glyph-name="Uogonek" unicode="&#x172;" horiz-adv-x="1366" 
d="M784 -522q-117 0 -188.5 64.5t-71.5 164.5q0 141 158 273q-6 -3 -25 -3q-207 5 -350 168.5t-143 411.5v815h190v-805q0 -187 88.5 -299t237.5 -112q148 0 240 113t92 298v805h190v-815q0 -178 -76 -312.5t-217 -217.5q-223 -132 -223 -281q0 -61 35 -95t100 -34
q37 0 84 12v-135q-49 -16 -121 -16z" />
    <glyph glyph-name="uogonek" unicode="&#x173;" 
d="M813 -522q-121 0 -190.5 60.5t-69.5 164.5q0 86 52.5 158t166.5 139h-8v127q-114 -150 -285 -150q-155 0 -255.5 109.5t-100.5 275.5v580h176v-547q0 -117 62.5 -187.5t166.5 -70.5t168 71.5t64 188.5v545h176v-942q-132 -91 -178.5 -146t-46.5 -116q0 -121 135 -121
q38 0 84 12v-135q-47 -16 -117 -16z" />
    <glyph glyph-name="Wcircumflex" unicode="&#x174;" horiz-adv-x="1961" 
d="M51 1372h201l326 -971l368 971h70l368 -971l326 971h201l-481 -1409h-70l-379 1012l-381 -1012h-70zM682 1614l291 192l291 -192l-70 -117l-221 141l-219 -141z" />
    <glyph glyph-name="wcircumflex" unicode="&#x175;" horiz-adv-x="1404" 
d="M31 942h176l209 -606l250 627h71l252 -627l209 606h176l-336 -979h-69l-267 676l-266 -676h-69zM410 1184l290 192l291 -192l-69 -117l-222 141l-219 -141z" />
    <glyph glyph-name="Ycircumflex" unicode="&#x176;" horiz-adv-x="1083" 
d="M440 520l-420 852h211l314 -639l321 639h197l-432 -852v-520h-191v520zM256 1614l291 192l291 -192l-70 -117l-221 141l-219 -141z" />
    <glyph glyph-name="ycircumflex" unicode="&#x177;" horiz-adv-x="950" 
d="M377 -29l-346 971h190l252 -717l266 717h181l-543 -1454h-180zM186 1184l291 192l291 -192l-70 -117l-221 141l-219 -141z" />
    <glyph glyph-name="Ydieresis" unicode="&#x178;" horiz-adv-x="1083" 
d="M440 520l-420 852h211l314 -639l321 639h197l-432 -852v-520h-191v520zM352 1550q-49 0 -82.5 33.5t-33.5 83.5q0 51 33 85t83 34t84.5 -34t34.5 -85q0 -49 -34.5 -83t-84.5 -34zM741 1550q-49 0 -82.5 33.5t-33.5 83.5q0 51 33 85t83 34t84.5 -34t34.5 -85
q0 -49 -34.5 -83t-84.5 -34z" />
    <glyph glyph-name="Zacute" unicode="&#x179;" horiz-adv-x="1236" 
d="M92 70l752 1124h-723v178h1024v-69l-750 -1125h746v-178h-1049v70zM541 1540l221 322l131 -99l-250 -297z" />
    <glyph glyph-name="zacute" unicode="&#x17a;" horiz-adv-x="940" 
d="M72 70l518 712h-481v160h759v-70l-516 -712h508v-160h-788v70zM393 1110l221 322l131 -99l-249 -297z" />
    <glyph glyph-name="Zdotaccent" unicode="&#x17b;" horiz-adv-x="1236" 
d="M92 70l752 1124h-723v178h1024v-69l-750 -1125h746v-178h-1049v70zM631 1550q-49 0 -83 34t-34 83q0 51 33.5 85t83.5 34t84.5 -34t34.5 -85q0 -49 -34.5 -83t-84.5 -34z" />
    <glyph glyph-name="zdotaccent" unicode="&#x17c;" horiz-adv-x="940" 
d="M72 70l518 712h-481v160h759v-70l-516 -712h508v-160h-788v70zM483 1120q-49 0 -82.5 33.5t-33.5 83.5q0 51 33 85t83 34t84.5 -34t34.5 -85q0 -49 -34.5 -83t-84.5 -34z" />
    <glyph glyph-name="Zcaron" unicode="&#x17d;" horiz-adv-x="1236" 
d="M92 70l752 1124h-723v178h1024v-69l-750 -1125h746v-178h-1049v70zM340 1671l72 117l219 -141l221 141l70 -117l-291 -192z" />
    <glyph glyph-name="zcaron" unicode="&#x17e;" horiz-adv-x="940" 
d="M72 70l518 712h-481v160h759v-70l-516 -712h508v-160h-788v70zM195 1241l71 117l219 -141l222 141l69 -117l-291 -192z" />
    <glyph glyph-name="uni018F" unicode="&#x18f;" horiz-adv-x="1499" 
d="M731 -23q-135 0 -255.5 53t-207 144t-136.5 218.5t-50 271.5q0 28 4 90h1114q-20 203 -150.5 328.5t-320.5 125.5q-111 0 -212 -46t-179 -132l-139 123q103 116 242.5 179t293.5 63q186 0 340.5 -93.5t243 -255t88.5 -356.5q0 -197 -89 -360.5t-244.5 -258t-342.5 -94.5z
M739 164q177 0 303.5 117.5t151.5 306.5h-905q20 -185 146.5 -304.5t303.5 -119.5z" />
    <glyph glyph-name="florin" unicode="&#x192;" horiz-adv-x="786" 
d="M100 -512q-107 0 -192 61l78 146q1 -1 7 -5.5t10.5 -7.5t12.5 -8t16 -8.5t17.5 -7t20.5 -5t22 -1.5q54 0 88.5 40.5t40.5 112.5l88 990h-164v147h177l18 195q14 146 93 231.5t202 85.5q107 0 192 -61l-77 -146q-13 13 -42 28t-65 15q-55 0 -89 -40.5t-40 -112.5l-16 -195
h225v-147h-240l-86 -990q-13 -146 -93.5 -231.5t-203.5 -85.5z" />
    <glyph glyph-name="Aringacute" unicode="&#x1fa;" horiz-adv-x="1245" 
d="M549 1311q-63 20 -102 72t-39 118q0 83 63 143t154 60q90 0 152.5 -58.5t62.5 -144.5q0 -66 -41 -117.5t-105 -72.5l500 -1311h-203l-114 313h-508l-115 -313h-203zM811 492l-188 516l-189 -516h377zM625 1411q42 0 68 24.5t26 65.5t-26 65.5t-68 24.5t-69.5 -24.5
t-27.5 -65.5t27.5 -65.5t69.5 -24.5zM512 1841l328 213l84 -141l-346 -180z" />
    <glyph glyph-name="aringacute" unicode="&#x1fb;" horiz-adv-x="1001" 
d="M401 -23q-143 0 -236 83t-93 212q0 134 104 222t262 88q145 0 264 -68v47q0 110 -63.5 177t-167.5 67q-135 0 -221 -117l-119 117q145 160 350 160q174 0 286 -112t112 -284v-569h-177v125q-121 -148 -301 -148zM438 127q110 0 182 64.5t80 168.5q-64 43 -122 62.5
t-129 19.5q-92 0 -146.5 -43.5t-54.5 -115.5t51 -114t139 -42zM502 1016q-91 0 -153 59t-62 146q0 83 62.5 142.5t152.5 59.5t153.5 -60t63.5 -142q0 -87 -63 -146t-154 -59zM502 1128q42 0 69 26t27 67q0 38 -27.5 64t-68.5 26t-67.5 -25.5t-26.5 -64.5q0 -41 26.5 -67
t67.5 -26zM391 1559l328 213l84 -140l-346 -180z" />
    <glyph glyph-name="AEacute" unicode="&#x1fc;" horiz-adv-x="1615" 
d="M641 1372h836v-178h-605l56 -397h432v-179h-408l62 -440h479v-178h-641l-43 313h-477l-142 -313h-210zM782 492l-86 620l-284 -620h370zM748 1540l221 322l131 -99l-250 -297z" />
    <glyph glyph-name="aeacute" unicode="&#x1fd;" horiz-adv-x="1714" 
d="M422 -23q-154 0 -252 82t-98 211q0 136 107.5 224t275.5 88q136 0 258 -68v47q0 110 -66 177t-172 67q-139 0 -225 -117l-119 117q145 160 352 160q109 0 195.5 -43t140.5 -125q126 174 352 174q195 0 328 -131t133 -332q0 -38 -6 -82h-735q17 -130 98 -203t211 -73
q173 0 287 135l112 -105q-150 -196 -409 -196q-126 0 -224.5 50t-160.5 142q-61 -93 -161 -146t-222 -53zM440 127q114 0 184 64t76 169q-64 44 -121.5 63t-129.5 19q-93 0 -147 -43t-54 -116q0 -72 51 -114t141 -42zM1448 571q-18 115 -94 178.5t-187 63.5q-109 0 -180 -65
t-92 -177h553zM739 1110l222 322l131 -99l-250 -297z" />
    <glyph glyph-name="Oslashacute" unicode="&#x1fe;" horiz-adv-x="1570" 
d="M209 6l108 156q-107 101 -166 235t-59 289q0 145 54.5 276t147.5 226t221.5 151t270.5 56q181 0 334 -86l105 149l135 -94l-107 -152q107 -101 166.5 -235.5t59.5 -290.5q0 -193 -92.5 -356.5t-252 -258t-348.5 -94.5q-176 0 -335 89l-107 -154zM1012 1153
q-101 55 -226 55q-213 0 -352 -148.5t-139 -373.5q0 -226 135 -367zM786 164q211 0 350.5 147.5t139.5 374.5q0 221 -133 367l-584 -834q107 -55 227 -55zM694 1540l221 322l132 -99l-250 -297z" />
    <glyph glyph-name="oslashacute" unicode="&#x1ff;" horiz-adv-x="1140" 
d="M162 6l74 105q-154 144 -154 360q0 134 65 247.5t177.5 180t246.5 66.5q115 0 224 -56l73 107l113 -78l-74 -107q152 -149 152 -360q0 -204 -143 -349t-345 -145q-116 0 -225 56l-72 -105zM698 772q-56 27 -127 27q-135 0 -221 -92.5t-86 -235.5q0 -131 72 -215zM569 143
q135 0 221.5 92.5t86.5 235.5q0 130 -72 217l-361 -518q53 -27 125 -27zM479 1110l221 322l131 -99l-249 -297z" />
    <glyph glyph-name="Scommaaccent" unicode="&#x218;" horiz-adv-x="1040" 
d="M516 -25q-147 0 -267 67t-198 194l144 118q127 -200 323 -200q110 0 175 53.5t65 146.5q0 82 -59.5 142.5t-198.5 115.5q-189 78 -275 176t-86 234q0 164 110 268.5t283 104.5q245 0 408 -211l-139 -121q-116 154 -271 154q-93 0 -146.5 -48.5t-53.5 -132.5
q0 -80 57 -137t191 -111q192 -78 281 -179t89 -240q0 -173 -121 -283.5t-311 -110.5zM336 -510l84 408l166 -43l-131 -398z" />
    <glyph glyph-name="scommaaccent" unicode="&#x219;" horiz-adv-x="915" 
d="M463 -23q-127 0 -233.5 49t-178.5 144l117 121q124 -154 303 -154q85 0 135.5 31.5t50.5 85.5q0 49 -45.5 79.5t-152.5 57.5q-182 44 -264 115t-82 182q0 127 93 202t249 75q225 0 372 -162l-112 -119q-104 121 -266 121q-75 0 -117.5 -27.5t-42.5 -75.5q0 -49 44 -78.5
t150 -56.5q184 -42 267.5 -114.5t83.5 -184.5q0 -130 -102.5 -210.5t-268.5 -80.5zM291 -510l84 408l166 -43l-131 -398z" />
    <glyph glyph-name="uni021A" unicode="&#x21a;" horiz-adv-x="1167" 
d="M489 1194h-438v178h1065v-178h-436v-1194h-191v1194zM412 -510l84 408l166 -43l-132 -398z" />
    <glyph glyph-name="uni021B" unicode="&#x21b;" horiz-adv-x="759" 
d="M485 -23q-132 0 -206 79.5t-74 217.5v508h-144v160h144v254h176v-254h268v-160h-268v-497q0 -72 32.5 -110t94.5 -38q77 0 139 62l82 -117q-94 -105 -244 -105zM285 -510l84 408l166 -43l-132 -398z" />
    <glyph glyph-name="uni0232" unicode="&#x232;" horiz-adv-x="1083" 
d="M440 520l-420 852h211l314 -639l321 639h197l-432 -852v-520h-191v520zM319 1737h455v-144h-455v144z" />
    <glyph glyph-name="uni0233" unicode="&#x233;" horiz-adv-x="950" 
d="M377 -29l-346 971h190l252 -717l266 717h181l-543 -1454h-180zM250 1307h455v-144h-455v144z" />
    <glyph glyph-name="uni0244" unicode="&#x244;" horiz-adv-x="1386" 
d="M698 -23q-229 0 -376.5 161t-147.5 419v168h-143v160h143v487h191v-487h657v487h190v-487h144v-160h-144v-168q0 -258 -143 -419t-371 -161zM690 156q148 0 240 113t92 298v158h-657v-158q0 -187 88 -299t237 -112z" />
    <glyph glyph-name="uni0259" unicode="&#x259;" horiz-adv-x="1089" 
d="M535 -23q-194 0 -323.5 129.5t-129.5 331.5q0 53 6 84h733q-14 128 -93 202.5t-202 74.5q-187 0 -297 -137l-110 110q73 93 179 143t230 50q214 0 347 -138t133 -352q0 -215 -134.5 -356.5t-338.5 -141.5zM539 131q114 0 186.5 66t93.5 180h-553q19 -117 91 -181.5
t182 -64.5z" />
    <glyph glyph-name="uni0289" unicode="&#x289;" horiz-adv-x="1097" 
d="M500 -23q-155 0 -256 109.5t-101 275.5v144h-102v147h102v289h176v-289h459v289h176v-289h103v-147h-103v-506h-172v127q-108 -150 -282 -150zM547 137q104 0 167.5 71.5t63.5 188.5v109h-459v-111q0 -117 62 -187.5t166 -70.5z" />
    <glyph glyph-name="uni02BC" unicode="&#x2bc;" horiz-adv-x="280" 
d="M20 1018l74 379l166 -41l-121 -367z" />
    <glyph glyph-name="circumflex" unicode="&#x2c6;" horiz-adv-x="622" 
d="M20 1184l291 192l291 -192l-70 -117l-221 141l-219 -141z" />
    <glyph glyph-name="caron" unicode="&#x2c7;" horiz-adv-x="622" 
d="M20 1241l72 117l219 -141l221 141l70 -117l-291 -192z" />
    <glyph glyph-name="breve" unicode="&#x2d8;" horiz-adv-x="567" 
d="M283 1065q-119 0 -191 75t-72 199h140q0 -62 34 -99.5t89 -37.5q56 0 90.5 37.5t34.5 99.5h139q0 -126 -72 -200t-192 -74z" />
    <glyph glyph-name="dotaccent" unicode="&#x2d9;" horiz-adv-x="276" 
d="M137 1120q-49 0 -83 34t-34 83q0 51 33.5 85t83.5 34t84.5 -34t34.5 -85q0 -49 -34.5 -83t-84.5 -34z" />
    <glyph glyph-name="ring" unicode="&#x2da;" horiz-adv-x="473" 
d="M236 1014q-91 0 -153.5 60.5t-62.5 146.5q0 85 63 145.5t153 60.5q91 0 154 -60t63 -146q0 -87 -62.5 -147t-154.5 -60zM236 1126q41 0 68.5 27t27.5 68t-27.5 67.5t-68.5 26.5t-68 -26.5t-27 -67.5t27 -68t68 -27z" />
    <glyph glyph-name="ogonek" unicode="&#x2db;" horiz-adv-x="423" 
d="M281 -522q-121 0 -191 60.5t-70 164.5q0 85 53.5 157t166.5 140h163q-132 -91 -178.5 -146t-46.5 -116q0 -121 135 -121q37 0 86 12v-135q-49 -16 -118 -16z" />
    <glyph glyph-name="tilde" unicode="&#x2dc;" horiz-adv-x="616" 
d="M20 1194q25 74 74 115t111 41q10 0 19 -1t18.5 -3.5t16 -4.5t16 -6.5t13 -6.5t13.5 -7l12 -6q64 -37 90 -37q27 0 45 16.5t35 57.5l113 -70q-23 -73 -72 -114.5t-112 -41.5q-49 0 -111 37q-57 35 -90 35q-25 0 -42 -15.5t-36 -56.5z" />
    <glyph glyph-name="hungarumlaut" unicode="&#x2dd;" horiz-adv-x="636" 
d="M20 1098l181 315l137 -84l-207 -297zM299 1098l180 315l137 -84l-206 -297z" />
    <glyph glyph-name="uni0301" unicode="&#x301;" horiz-adv-x="0" 
d="M-782 1540l221 322l131 -99l-250 -297z" />
    <glyph glyph-name="uni030A" unicode="&#x30a;" horiz-adv-x="0" 
d="M-688 1444q-90 0 -152.5 60t-62.5 147q0 85 62.5 146t152.5 61q91 0 154 -60.5t63 -146.5q0 -87 -62.5 -147t-154.5 -60zM-688 1556q41 0 68.5 27t27.5 68t-27.5 67.5t-68.5 26.5t-67.5 -26.5t-26.5 -67.5t26.5 -68t67.5 -27z" />
    <glyph glyph-name="uni0326" unicode="&#x326;" horiz-adv-x="290" 
d="M20 -510l84 408l166 -43l-131 -398z" />
    <glyph glyph-name="uni0401" unicode="&#x401;" horiz-adv-x="1038" 
d="M174 1372h731v-178h-540v-397h409v-179h-409v-440h550v-178h-741v1372zM346 1550q-50 0 -83.5 34t-33.5 83q0 51 33.5 85t83.5 34t84.5 -34t34.5 -85q0 -49 -34.5 -83t-84.5 -34zM735 1550q-49 0 -83 34t-34 83q0 51 33.5 85t83.5 34t84.5 -34t34.5 -85q0 -49 -34.5 -83
t-84.5 -34z" />
    <glyph glyph-name="uni0402" unicode="&#x402;" horiz-adv-x="1394" 
d="M915 -23q-100 0 -170 41l62 166q48 -28 104 -28q87 0 139 68.5t52 181.5q0 125 -65 199.5t-179 74.5q-120 0 -258 -62v-618h-190v1194h-379v178h1003v-178h-434v-397q136 61 279 61q186 0 299.5 -124.5t113.5 -325.5q0 -192 -105 -311.5t-272 -119.5z" />
    <glyph glyph-name="uni0403" unicode="&#x403;" horiz-adv-x="983" 
d="M174 1372h737v-178h-546v-1194h-191v1372zM451 1540l221 322l131 -99l-250 -297z" />
    <glyph glyph-name="uni0404" unicode="&#x404;" horiz-adv-x="1394" 
d="M784 -23q-147 0 -276 54t-220 147.5t-143.5 225t-52.5 282.5q0 148 53 279.5t143.5 225.5t217.5 149t270 55q156 0 289.5 -63.5t232.5 -178.5l-141 -123q-149 178 -379 178q-190 0 -319 -117.5t-154 -310.5h641v-178h-643q25 -197 158 -317.5t327 -120.5q120 0 220 48
t168 132l137 -123q-98 -118 -232.5 -181t-296.5 -63z" />
    <glyph glyph-name="uni0405" unicode="&#x405;" horiz-adv-x="1040" 
d="M516 -25q-147 0 -267 67t-198 194l144 118q127 -200 323 -200q110 0 175 53.5t65 146.5q0 82 -59.5 142.5t-198.5 115.5q-189 78 -275 176t-86 234q0 164 110 268.5t283 104.5q245 0 408 -211l-139 -121q-116 154 -271 154q-93 0 -146.5 -48.5t-53.5 -132.5
q0 -80 57 -137t191 -111q192 -78 281 -179t89 -240q0 -173 -121 -283.5t-311 -110.5z" />
    <glyph glyph-name="uni0406" unicode="&#x406;" horiz-adv-x="538" 
d="M174 1372h191v-1372h-191v1372z" />
    <glyph glyph-name="uni0407" unicode="&#x407;" horiz-adv-x="542" 
d="M174 1372h191v-1372h-191v1372zM76 1550q-50 0 -83.5 34t-33.5 83q0 51 33.5 85t83.5 34t84.5 -34t34.5 -85q0 -49 -34.5 -83t-84.5 -34zM465 1550q-49 0 -83 34t-34 83q0 51 33.5 85t83.5 34t84.5 -34t34.5 -85q0 -49 -34.5 -83t-84.5 -34z" />
    <glyph glyph-name="uni0408" unicode="&#x408;" horiz-adv-x="923" 
d="M360 -23q-228 0 -340 195l144 119q76 -135 198 -135q94 0 150.5 70t56.5 188v780h-385v178h576v-956q0 -196 -110.5 -317.5t-289.5 -121.5z" />
    <glyph glyph-name="uni0409" unicode="&#x409;" horiz-adv-x="1902" 
d="M139 -12q-53 0 -98 10v190q46 -12 78 -12q170 0 170 246v950h885v-504h163q211 0 347.5 -121t136.5 -311q0 -189 -136.5 -312.5t-345.5 -123.5h-356v1194h-504v-770q0 -436 -340 -436zM1337 166q130 0 211.5 75t81.5 193q0 117 -79.5 186.5t-213.5 69.5h-163v-524h163z
" />
    <glyph glyph-name="uni040A" unicode="&#x40a;" horiz-adv-x="1961" 
d="M174 1372h191v-543h677v543h191v-545h172q207 0 341 -115.5t134 -295.5q0 -179 -134.5 -297.5t-338.5 -118.5h-365v649h-677v-649h-191v1372zM1405 178q130 0 207.5 64t77.5 172t-77.5 171.5t-207.5 63.5h-172v-471h172z" />
    <glyph glyph-name="uni040B" unicode="&#x40b;" horiz-adv-x="1415" 
d="M410 1194h-379v178h1003v-178h-434v-397q136 61 279 61q185 0 299 -121.5t114 -314.5v-422h-190v420q0 120 -64 190t-180 70q-120 0 -258 -62v-618h-190v1194z" />
    <glyph glyph-name="uni040C" unicode="&#x40c;" horiz-adv-x="1153" 
d="M174 1372h191v-627l520 627h229l-547 -657l576 -715h-242l-536 666v-666h-191v1372zM526 1540l222 322l131 -99l-250 -297z" />
    <glyph glyph-name="uni040E" unicode="&#x40e;" horiz-adv-x="1130" 
d="M463 354l-422 1018h207l321 -774l332 774h199l-592 -1372h-197zM575 1491q-124 0 -200 77.5t-76 205.5h152q0 -69 34 -109.5t90 -40.5q55 0 89 41t34 109h152q0 -128 -75.5 -205.5t-199.5 -77.5z" />
    <glyph glyph-name="uni040F" unicode="&#x40f;" horiz-adv-x="1349" 
d="M580 0h-406v1372h191v-1194h620v1194h191v-1372h-406v-311h-190v311z" />
    <glyph glyph-name="uni0410" unicode="&#x410;" horiz-adv-x="1245" 
d="M586 1409h71l537 -1409h-203l-114 313h-508l-115 -313h-203zM811 492l-188 516l-189 -516h377z" />
    <glyph glyph-name="uni0411" unicode="&#x411;" horiz-adv-x="1114" 
d="M174 1372h729v-178h-538v-363h163q212 0 348 -116.5t136 -296.5q0 -181 -135.5 -299.5t-344.5 -118.5h-358v1372zM528 178q134 0 213.5 65t79.5 175q0 108 -79.5 171.5t-213.5 63.5h-163v-475h163z" />
    <glyph glyph-name="uni0412" unicode="&#x412;" horiz-adv-x="1140" 
d="M174 1372h340q193 0 317.5 -104t124.5 -264q0 -183 -170 -281q113 -44 177.5 -132t64.5 -200q0 -168 -135.5 -279.5t-343.5 -111.5h-375v1372zM549 178q132 0 210.5 59t78.5 162q0 102 -78.5 160.5t-210.5 58.5h-184v-440h184zM514 797q117 0 184.5 53t67.5 145
t-68 145.5t-184 53.5h-149v-397h149z" />
    <glyph glyph-name="uni0413" unicode="&#x413;" horiz-adv-x="983" 
d="M174 1372h737v-178h-546v-1194h-191v1372z" />
    <glyph glyph-name="uni0414" unicode="&#x414;" horiz-adv-x="1372" 
d="M41 178q105 0 166 158t61 432v604h875v-1194h168v-489h-191v311h-889v-311h-190v489zM952 178v1016h-493v-422q0 -222 -29.5 -362t-95.5 -232h618z" />
    <glyph glyph-name="uni0415" unicode="&#x415;" horiz-adv-x="1038" 
d="M174 1372h731v-178h-540v-397h409v-179h-409v-440h550v-178h-741v1372z" />
    <glyph glyph-name="uni0416" unicode="&#x416;" horiz-adv-x="1714" 
d="M565 715l-528 657h221l504 -629v629h190v-629l502 629h223l-528 -657l555 -715h-236l-516 664v-664h-190v664l-516 -664h-236z" />
    <glyph glyph-name="uni0417" unicode="&#x417;" horiz-adv-x="1085" 
d="M524 -23q-154 0 -274 73t-189 208l154 104q99 -206 307 -206q118 0 189 61.5t71 165.5q0 115 -85.5 177.5t-239.5 62.5h-117v178h111q129 0 203.5 58.5t74.5 158.5q0 91 -61 145t-160 54q-156 0 -248 -154l-137 108q67 109 171 166.5t232 57.5q171 0 282.5 -101
t111.5 -256q0 -102 -49.5 -182.5t-139.5 -132.5q113 -48 177.5 -139t64.5 -211q0 -172 -127 -284t-322 -112z" />
    <glyph glyph-name="uni0418" unicode="&#x418;" horiz-adv-x="1482" 
d="M174 1372h191v-1003l874 1040h70v-1409h-191v1004l-874 -1041h-70v1409z" />
    <glyph glyph-name="uni0419" unicode="&#x419;" horiz-adv-x="1482" 
d="M174 1372h191v-1003l874 1040h70v-1409h-191v1004l-874 -1041h-70v1409zM752 1491q-124 0 -200.5 77.5t-76.5 205.5h152q0 -68 34.5 -109t90.5 -41q55 0 88.5 41t33.5 109h152q0 -129 -75.5 -206t-198.5 -77z" />
    <glyph glyph-name="uni041A" unicode="&#x41a;" horiz-adv-x="1153" 
d="M174 1372h191v-627l520 627h229l-547 -657l576 -715h-242l-536 666v-666h-191v1372z" />
    <glyph glyph-name="uni041B" unicode="&#x41b;" horiz-adv-x="1347" 
d="M139 -12q-53 0 -98 10v190q54 -14 78 -14q170 0 170 248v950h885v-1372h-191v1194h-504v-770q0 -436 -340 -436z" />
    <glyph glyph-name="uni041C" unicode="&#x41c;" horiz-adv-x="1681" 
d="M174 1409h70l596 -823l598 823h69v-1409h-190v930l-445 -606h-65l-442 606v-930h-191v1409z" />
    <glyph glyph-name="uni041D" unicode="&#x41d;" horiz-adv-x="1406" 
d="M174 1372h191v-590h677v590h191v-1372h-191v604h-677v-604h-191v1372z" />
    <glyph glyph-name="uni041E" unicode="&#x41e;" horiz-adv-x="1572" 
d="M788 -23q-143 0 -272 55.5t-222 150.5t-147.5 226t-54.5 277q0 145 55 276t147.5 226t221.5 151t272 56q142 0 270.5 -55.5t221 -150.5t147 -226t54.5 -277q0 -193 -92.5 -356.5t-252 -258t-348.5 -94.5zM786 164q212 0 352 148t140 374q0 224 -140.5 373t-351.5 149
q-213 0 -352 -148.5t-139 -373.5t139 -373.5t352 -148.5z" />
    <glyph glyph-name="uni041F" unicode="&#x41f;" horiz-adv-x="1370" 
d="M174 1372h1022v-1372h-190v1194h-641v-1194h-191v1372z" />
    <glyph glyph-name="uni0420" unicode="&#x420;" horiz-adv-x="1103" 
d="M174 1372h354q212 0 348 -120t136 -308q0 -189 -135 -309.5t-345 -120.5h-167v-514h-191v1372zM528 692q134 0 213.5 68t79.5 184q0 115 -79.5 182.5t-213.5 67.5h-163v-502h163z" />
    <glyph glyph-name="uni0421" unicode="&#x421;" horiz-adv-x="1394" 
d="M784 -23q-195 0 -353.5 91.5t-248.5 252t-90 357.5q0 148 54.5 281.5t148 228.5t222 151t271.5 56q152 0 284.5 -61t232.5 -173l-138 -129q-72 86 -171 131t-212 45q-213 0 -351 -147t-138 -373q0 -228 141 -376t359 -148q118 0 217.5 46.5t167.5 131.5l133 -125
q-99 -116 -234 -178t-295 -62z" />
    <glyph glyph-name="uni0422" unicode="&#x422;" horiz-adv-x="1167" 
d="M489 1194h-438v178h1065v-178h-436v-1194h-191v1194z" />
    <glyph glyph-name="uni0423" unicode="&#x423;" horiz-adv-x="1130" 
d="M463 354l-422 1018h207l321 -774l332 774h199l-592 -1372h-197z" />
    <glyph glyph-name="uni0424" unicode="&#x424;" horiz-adv-x="1624" 
d="M717 78q-180 0 -325.5 79.5t-227.5 218.5t-82 310q0 172 82 311t227.5 218t325.5 79v185h190v-185q180 0 325.5 -79t227.5 -218t82 -311q0 -171 -82 -310t-227.5 -218.5t-325.5 -79.5v-184h-190v184zM717 1116q-189 0 -310.5 -122t-121.5 -308t121.5 -308t310.5 -122v860
zM907 256q189 0 310.5 122t121.5 308t-121.5 308t-310.5 122v-860z" />
    <glyph glyph-name="uni0425" unicode="&#x425;" horiz-adv-x="1204" 
d="M489 690l-397 682h223l301 -526l312 526h209l-412 -674l418 -698h-223l-320 543l-328 -543h-211z" />
    <glyph glyph-name="uni0426" unicode="&#x426;" horiz-adv-x="1380" 
d="M1139 0h-965v1372h191v-1194h620v1194h191v-1194h153v-489h-190v311z" />
    <glyph glyph-name="uni0427" unicode="&#x427;" horiz-adv-x="1200" 
d="M836 502q-133 -62 -273 -62q-186 0 -303 120.5t-117 311.5v500h191v-498q0 -118 67 -187t183 -69q119 0 252 62v692h190v-1372h-190v502z" />
    <glyph glyph-name="uni0428" unicode="&#x428;" horiz-adv-x="2082" 
d="M174 1372h191v-1194h581v1194h191v-1194h581v1194h191v-1372h-1735v1372z" />
    <glyph glyph-name="uni0429" unicode="&#x429;" horiz-adv-x="2111" 
d="M1870 0h-1696v1372h191v-1194h581v1194h191v-1194h581v1194h191v-1194h151v-489h-190v311z" />
    <glyph glyph-name="uni042A" unicode="&#x42a;" horiz-adv-x="1148" 
d="M229 1194h-219v178h410v-504h166q211 0 346 -121t135 -311q0 -189 -135.5 -312.5t-345.5 -123.5h-357v1194zM586 178q131 0 211 70t80 186t-80 186t-211 70h-166v-512h166z" />
    <glyph glyph-name="uni042B" unicode="&#x42b;" horiz-adv-x="1538" 
d="M174 1372h191v-504h147q211 0 347 -121t136 -311q0 -189 -136 -312.5t-345 -123.5h-340v1372zM512 178q134 0 213.5 69.5t79.5 186.5t-79.5 186.5t-213.5 69.5h-147v-512h147zM1174 1372h190v-1372h-190v1372z" />
    <glyph glyph-name="uni042C" unicode="&#x42c;" horiz-adv-x="1093" 
d="M174 1372h191v-504h163q213 0 348.5 -121t135.5 -311q0 -189 -136 -312.5t-346 -123.5h-356v1372zM528 178q134 0 213.5 69.5t79.5 186.5t-79.5 186.5t-213.5 69.5h-163v-512h163z" />
    <glyph glyph-name="uni042D" unicode="&#x42d;" horiz-adv-x="1390" 
d="M612 -23q-162 0 -297 63.5t-233 180.5l135 127q150 -184 393 -184q191 0 323 121t157 317h-601v178h598q-25 192 -152.5 310t-311.5 118q-234 0 -383 -178l-140 123q99 115 234.5 178.5t292.5 63.5q190 0 343.5 -92t240.5 -254.5t87 -362.5q0 -151 -52.5 -283
t-143 -225.5t-218 -147t-272.5 -53.5z" />
    <glyph glyph-name="uni042E" unicode="&#x42e;" horiz-adv-x="1976" 
d="M1208 -23q-129 0 -246.5 48.5t-205 132t-145.5 199.5t-72 247h-174v-604h-191v1372h191v-590h176q14 129 72.5 242.5t147 195t205 128.5t242.5 47q138 0 263.5 -55.5t215.5 -150.5t143.5 -226t53.5 -277q0 -145 -53.5 -276t-143.5 -226t-215.5 -151t-263.5 -56zM1208 164
q203 0 338 148t135 374q0 224 -135 373t-338 149t-338 -149t-135 -373t135 -373t338 -149z" />
    <glyph glyph-name="uni042F" unicode="&#x42f;" horiz-adv-x="1157" 
d="M420 573q-124 48 -196 148.5t-72 232.5q0 184 133.5 301t343.5 117h354v-1372h-190v541h-172l-318 -541h-221zM793 719v475h-160q-131 0 -211 -65t-80 -173q0 -109 79.5 -173t211.5 -64h160z" />
    <glyph glyph-name="uni0430" unicode="&#x430;" horiz-adv-x="1001" 
d="M401 -23q-143 0 -236 83t-93 212q0 134 104 222t262 88q145 0 264 -68v47q0 110 -63.5 177t-167.5 67q-135 0 -221 -117l-119 117q145 160 350 160q174 0 286 -112t112 -284v-569h-177v125q-121 -148 -301 -148zM438 127q110 0 182 64.5t80 168.5q-64 43 -122 62.5
t-129 19.5q-92 0 -146.5 -43.5t-54.5 -115.5t51 -114t139 -42z" />
    <glyph glyph-name="uni0431" unicode="&#x431;" horiz-adv-x="1140" 
d="M575 -23q-214 0 -343.5 156t-129.5 414v121q0 334 113 500.5t360 191.5q141 17 205.5 39.5t110.5 68.5l88 -133q-45 -63 -120.5 -93.5t-237.5 -47.5q-179 -19 -257.5 -124.5t-82.5 -334.5q54 87 141.5 135t195.5 48q186 0 313.5 -134t127.5 -329q0 -203 -139.5 -340.5
t-344.5 -137.5zM586 143q127 0 209 87t82 219t-82 217.5t-209 85.5q-128 0 -214.5 -86t-86.5 -217q0 -133 86.5 -219.5t214.5 -86.5z" />
    <glyph glyph-name="uni0432" unicode="&#x432;" horiz-adv-x="958" 
d="M133 942h361q146 0 238.5 -72t92.5 -186q0 -122 -108 -192q72 -32 110.5 -90.5t38.5 -133.5q0 -117 -94 -192.5t-240 -75.5h-399v942zM528 150q74 0 118 35.5t44 95.5q0 57 -44 91t-118 34h-219v-256h219zM492 555q72 0 114.5 33t42.5 88q0 54 -42.5 85.5t-114.5 31.5
h-183v-238h183z" />
    <glyph glyph-name="uni0433" unicode="&#x433;" horiz-adv-x="753" 
d="M133 942h580v-160h-404v-782h-176v942z" />
    <glyph glyph-name="uni0434" unicode="&#x434;" horiz-adv-x="1073" 
d="M41 160q80 0 121 94t41 317v371h692v-782h127v-426h-176v266h-629v-266h-176v426zM719 160v622h-340v-215q0 -156 -19.5 -250.5t-62.5 -156.5h422z" />
    <glyph glyph-name="uni0435" unicode="&#x435;" horiz-adv-x="1089" 
d="M573 -23q-216 0 -353.5 139.5t-137.5 354.5q0 213 134 353.5t339 140.5q194 0 323.5 -129.5t129.5 -331.5q0 -30 -7 -84h-735q17 -130 100.5 -203.5t217.5 -73.5q176 0 290 138l111 -105q-73 -97 -180 -148t-232 -51zM823 565q-19 116 -91 179t-183 63
q-112 0 -185.5 -64.5t-93.5 -177.5h553z" />
    <glyph glyph-name="uni0436" unicode="&#x436;" horiz-adv-x="1351" 
d="M403 481l-366 461h201l350 -444v444h176v-444l350 444h201l-367 -461l393 -481h-221l-356 444v-444h-176v444l-357 -444h-221z" />
    <glyph glyph-name="uni0437" unicode="&#x437;" horiz-adv-x="919" 
d="M451 -23q-124 0 -227.5 48.5t-172.5 138.5l119 115q60 -75 125.5 -108.5t150.5 -33.5q94 0 149.5 36t55.5 101q0 60 -58.5 92.5t-164.5 32.5h-111v160h103q90 0 141 34.5t51 92.5q0 55 -46 87t-124 32q-136 0 -231 -109l-111 113q69 73 162.5 114.5t196.5 41.5
q142 0 235.5 -76t93.5 -195q0 -125 -110 -200q69 -29 109 -89.5t40 -138.5q0 -127 -105 -208t-271 -81z" />
    <glyph glyph-name="uni0438" unicode="&#x438;" horiz-adv-x="1073" 
d="M133 942h176v-608l568 629h63v-963h-176v608l-565 -628h-66v962z" />
    <glyph glyph-name="uni0439" unicode="&#x439;" horiz-adv-x="1073" 
d="M133 942h176v-608l568 629h63v-963h-176v608l-565 -628h-66v962zM543 1061q-119 0 -191.5 77t-72.5 205h151q0 -68 31.5 -108.5t81.5 -40.5q53 0 83.5 40.5t30.5 108.5h152q0 -129 -72 -205.5t-194 -76.5z" />
    <glyph glyph-name="uni043A" unicode="&#x43a;" horiz-adv-x="931" 
d="M133 942h176v-446l379 446h207l-393 -457l420 -485h-228l-385 446v-446h-176v942z" />
    <glyph glyph-name="uni043B" unicode="&#x43b;" horiz-adv-x="1036" 
d="M106 -12q-41 0 -65 6v178q19 -8 53 -8q56 0 82.5 41t26.5 131v606h700v-942h-176v782h-348v-444q0 -350 -273 -350z" />
    <glyph glyph-name="uni043C" unicode="&#x43c;" horiz-adv-x="1259" 
d="M133 963h64l434 -533l432 533h63v-963h-176v565l-293 -358h-55l-293 358v-565h-176v963z" />
    <glyph glyph-name="uni043D" unicode="&#x43d;" horiz-adv-x="1062" 
d="M133 942h176v-387h445v387h176v-942h-176v395h-445v-395h-176v942z" />
    <glyph glyph-name="uni043E" unicode="&#x43e;" horiz-adv-x="1140" 
d="M571 -23q-134 0 -246.5 66.5t-177.5 180t-65 247.5t65 247.5t177.5 180t246.5 66.5q202 0 345 -145t143 -349t-143 -349t-345 -145zM571 143q133 0 219.5 92.5t86.5 235.5t-86.5 235.5t-219.5 92.5q-135 0 -221 -92.5t-86 -235.5t86 -235.5t221 -92.5z" />
    <glyph glyph-name="uni043F" unicode="&#x43f;" horiz-adv-x="1042" 
d="M133 942h776v-942h-176v782h-424v-782h-176v942z" />
    <glyph glyph-name="uni0440" unicode="&#x440;" horiz-adv-x="1165" 
d="M598 143q131 0 220 93t89 235t-89 235t-220 93q-132 0 -218.5 -93.5t-86.5 -234.5q0 -142 86.5 -235t218.5 -93zM133 942h172v-141q57 77 140.5 120.5t185.5 43.5q191 0 321.5 -142.5t130.5 -351.5q0 -134 -60.5 -247.5t-165.5 -180t-230 -66.5q-97 0 -178.5 39
t-139.5 109v-637h-176v1454z" />
    <glyph glyph-name="uni0441" unicode="&#x441;" horiz-adv-x="1032" 
d="M571 -23q-135 0 -247.5 65t-177 178t-64.5 249q0 134 65 248t177.5 181t246.5 67q118 0 221.5 -51.5t172.5 -143.5l-125 -111q-107 140 -269 140q-134 0 -220.5 -93t-86.5 -233q0 -143 89 -236.5t225 -93.5q162 0 274 140l119 -107q-68 -93 -173 -146t-227 -53z" />
    <glyph glyph-name="uni0442" unicode="&#x442;" horiz-adv-x="833" 
d="M328 782h-287v160h752v-160h-289v-782h-176v782z" />
    <glyph glyph-name="uni0443" unicode="&#x443;" horiz-adv-x="950" 
d="M377 -29l-346 971h190l252 -717l266 717h181l-543 -1454h-180z" />
    <glyph glyph-name="uni0444" unicode="&#x444;" horiz-adv-x="1294" 
d="M559 805q-128 0 -211.5 -95.5t-83.5 -238.5q0 -145 83 -239.5t212 -94.5v668zM559 -23q-129 0 -239 66.5t-174 180t-64 247.5t64 247.5t174 180t239 66.5v489h176v-489q132 0 241.5 -66.5t172.5 -180t63 -247.5t-63 -247.5t-172.5 -180t-241.5 -66.5v-489h-176v489z
M735 137q129 0 212 94.5t83 239.5q0 143 -83.5 238.5t-211.5 95.5v-668z" />
    <glyph glyph-name="uni0445" unicode="&#x445;" horiz-adv-x="915" 
d="M348 477l-299 465h209l205 -330l205 330h196l-299 -457l309 -485h-206l-215 346l-215 -346h-197z" />
    <glyph glyph-name="uni0446" unicode="&#x446;" horiz-adv-x="1052" 
d="M836 0h-703v942h176v-782h404v782h176v-782h123v-426h-176v266z" />
    <glyph glyph-name="uni0447" unicode="&#x447;" horiz-adv-x="968" 
d="M659 293q-111 -29 -210 -29q-159 0 -253 90t-94 240v348h177v-346q0 -79 51.5 -125.5t144.5 -46.5q63 0 184 27v491h177v-942h-177v293z" />
    <glyph glyph-name="uni0448" unicode="&#x448;" horiz-adv-x="1538" 
d="M133 942h176v-782h373v782h176v-782h371v782h176v-942h-1272v942z" />
    <glyph glyph-name="uni0449" unicode="&#x449;" horiz-adv-x="1568" 
d="M1352 0h-1219v942h176v-782h373v782h176v-782h371v782h176v-782h123v-426h-176v266z" />
    <glyph glyph-name="uni044A" unicode="&#x44a;" horiz-adv-x="980" 
d="M201 782h-191v160h367v-319h184q160 0 259.5 -87t99.5 -223q0 -138 -98 -225.5t-257 -87.5h-364v782zM561 160q82 0 132 41t50 110q0 71 -49.5 111.5t-132.5 40.5h-184v-303h184z" />
    <glyph glyph-name="uni044B" unicode="&#x44b;" horiz-adv-x="1259" 
d="M133 942h176v-319h156q157 0 254.5 -87.5t97.5 -224.5t-95.5 -224t-252.5 -87h-336v942zM465 160q79 0 127.5 40t48.5 111t-48.5 111.5t-127.5 40.5h-156v-303h156zM950 942h176v-942h-176v942z" />
    <glyph glyph-name="uni044C" unicode="&#x44c;" horiz-adv-x="913" 
d="M133 942h176v-319h185q161 0 259.5 -87t98.5 -223q0 -138 -96.5 -225.5t-255.5 -87.5h-367v942zM496 160q82 0 131 40t49 109q0 72 -49 113t-131 41h-187v-303h187z" />
    <glyph glyph-name="uni044D" unicode="&#x44d;" horiz-adv-x="1032" 
d="M467 -23q-122 0 -228 51t-178 144l123 115q114 -144 279 -144q116 0 194 67t101 183h-412v160h412q-23 116 -100.5 181t-188.5 65q-75 0 -144.5 -34.5t-123.5 -100.5l-123 110q72 92 175.5 141.5t221.5 49.5q201 0 338 -142.5t137 -351.5q0 -138 -63 -251.5t-174 -178
t-246 -64.5z" />
    <glyph glyph-name="uni044E" unicode="&#x44e;" horiz-adv-x="1472" 
d="M913 -23q-178 0 -312 119.5t-159 298.5h-133v-395h-176v942h176v-387h133q30 174 162.5 292t308.5 118q129 0 239 -66t174.5 -180t64.5 -248t-64.5 -248t-174.5 -180t-239 -66zM913 143q127 0 209 93.5t82 236.5q0 141 -82 233.5t-209 92.5q-129 0 -213 -92.5t-84 -233.5
q0 -143 84 -236.5t213 -93.5z" />
    <glyph glyph-name="uni044F" unicode="&#x44f;" horiz-adv-x="974" 
d="M322 356q-94 35 -147.5 109t-53.5 172q0 135 96 220t256 85h369v-942h-176v330h-158l-209 -330h-207zM666 489v293h-187q-85 0 -133.5 -39t-48.5 -108q0 -67 50 -106.5t132 -39.5h187z" />
    <glyph glyph-name="uni0451" unicode="&#x451;" horiz-adv-x="1089" 
d="M573 -23q-216 0 -353.5 139.5t-137.5 354.5q0 213 134 353.5t339 140.5q194 0 323.5 -129.5t129.5 -331.5q0 -30 -7 -84h-735q17 -130 100.5 -203.5t217.5 -73.5q176 0 290 138l111 -105q-73 -97 -180 -148t-232 -51zM823 565q-19 116 -91 179t-183 63
q-112 0 -185.5 -64.5t-93.5 -177.5h553zM358 1120q-49 0 -82.5 33.5t-33.5 83.5q0 51 33 85t83 34t84.5 -34t34.5 -85q0 -49 -34.5 -83t-84.5 -34zM748 1120q-50 0 -83.5 34t-33.5 83q0 51 33.5 85t83.5 34t84 -34t34 -85q0 -49 -34 -83t-84 -34z" />
    <glyph glyph-name="uni0452" unicode="&#x452;" horiz-adv-x="1073" 
d="M664 -512q-128 0 -209 90l90 137q52 -61 110 -61q55 0 87 40.5t32 108.5v641q0 117 -60.5 187.5t-162.5 70.5t-163.5 -71.5t-61.5 -188.5v-442h-176v1049h-130v159h130v246h176v-246h342v-159h-342v-330q107 143 274 143q152 0 251 -109.5t99 -275.5v-680
q0 -137 -79 -223t-207 -86z" />
    <glyph glyph-name="uni0453" unicode="&#x453;" horiz-adv-x="753" 
d="M133 942h580v-160h-404v-782h-176v942zM332 1110l221 322l131 -99l-250 -297z" />
    <glyph glyph-name="uni0454" unicode="&#x454;" horiz-adv-x="1032" 
d="M573 -23q-207 0 -349 142.5t-142 351.5q0 134 64.5 247.5t176.5 180t246 66.5q117 0 220 -51.5t172 -143.5l-125 -111q-107 140 -267 140q-115 0 -193 -67t-102 -179h431v-160h-433q24 -114 105 -182t201 -68q162 0 274 140l119 -107q-70 -94 -173.5 -146.5t-224.5 -52.5
z" />
    <glyph glyph-name="uni0455" unicode="&#x455;" horiz-adv-x="915" 
d="M463 -23q-127 0 -233.5 49t-178.5 144l117 121q124 -154 303 -154q85 0 135.5 31.5t50.5 85.5q0 49 -45.5 79.5t-152.5 57.5q-182 44 -264 115t-82 182q0 127 93 202t249 75q225 0 372 -162l-112 -119q-104 121 -266 121q-75 0 -117.5 -27.5t-42.5 -75.5q0 -49 44 -78.5
t150 -56.5q184 -42 267.5 -114.5t83.5 -184.5q0 -130 -102.5 -210.5t-268.5 -80.5z" />
    <glyph glyph-name="uni0456" unicode="&#x456;" horiz-adv-x="440" 
d="M131 942h176v-942h-176v942zM219 1120q-49 0 -83 34t-34 83q0 51 34 85t85 34q48 0 82.5 -34.5t34.5 -84.5q0 -49 -34.5 -83t-84.5 -34z" />
    <glyph glyph-name="uni0457" unicode="&#x457;" horiz-adv-x="452" 
d="M137 942h176v-942h-176v942zM61 1122q-47 0 -79.5 34.5t-32.5 82.5t32.5 81.5t79.5 33.5t80 -34t33 -81q0 -48 -33 -82.5t-80 -34.5zM389 1122q-47 0 -78.5 34.5t-31.5 82.5t32.5 81.5t81.5 33.5q47 0 79 -33.5t32 -81.5t-33 -82.5t-82 -34.5z" />
    <glyph glyph-name="uni0458" unicode="&#x458;" horiz-adv-x="442" 
d="M39 -512q-112 0 -193 78l86 143q52 -55 99 -55q50 0 76 37t26 100v1151h176v-1157q0 -134 -73 -215.5t-197 -81.5zM221 1120q-49 0 -83 34t-34 83q0 51 34 85t85 34q48 0 82.5 -34.5t34.5 -84.5q0 -49 -34.5 -83t-84.5 -34z" />
    <glyph glyph-name="uni0459" unicode="&#x459;" horiz-adv-x="1505" 
d="M106 -12q-41 0 -65 6v178q19 -8 53 -8q56 0 82.5 41t26.5 131v606h698v-319h184q160 0 259.5 -87t99.5 -223q0 -138 -98 -225.5t-256 -87.5h-365v782h-346v-444q0 -350 -273 -350zM1085 147q81 0 132 47t51 117q0 71 -50 111.5t-133 40.5h-184v-316h184z" />
    <glyph glyph-name="uni045A" unicode="&#x45a;" horiz-adv-x="1533" 
d="M133 942h176v-356h445v356h176v-356h188q159 0 257 -81.5t98 -211.5t-97.5 -211.5t-255.5 -81.5h-366v426h-445v-426h-176v942zM1120 160q79 0 127.5 36t48.5 97q0 62 -48.5 99.5t-127.5 37.5h-190v-270h190z" />
    <glyph glyph-name="uni045B" unicode="&#x45b;" horiz-adv-x="1073" 
d="M150 1049h-130v159h130v246h176v-246h342v-159h-342v-330q107 143 274 143q152 0 251 -109.5t99 -275.5v-477h-176v444q0 117 -60.5 187.5t-162.5 70.5t-163.5 -71.5t-61.5 -188.5v-442h-176v1049z" />
    <glyph glyph-name="uni045C" unicode="&#x45c;" horiz-adv-x="931" 
d="M133 942h176v-446l379 446h207l-393 -457l420 -485h-228l-385 446v-446h-176v942zM383 1110l221 322l131 -99l-250 -297z" />
    <glyph glyph-name="uni045E" unicode="&#x45e;" horiz-adv-x="950" 
d="M377 -29l-346 971h190l252 -717l266 717h181l-543 -1454h-180zM475 1061q-119 0 -191.5 77t-72.5 205h151q0 -68 31.5 -108.5t81.5 -40.5q54 0 84.5 40.5t30.5 108.5h151q0 -129 -72 -205.5t-194 -76.5z" />
    <glyph glyph-name="uni045F" unicode="&#x45f;" horiz-adv-x="1026" 
d="M424 0h-291v942h176v-782h408v782h176v-942h-293v-266h-176v266z" />
    <glyph glyph-name="uni0490" unicode="&#x490;" horiz-adv-x="983" 
d="M174 1372h547v215h190v-393h-546v-1194h-191v1372z" />
    <glyph glyph-name="uni0491" unicode="&#x491;" horiz-adv-x="751" 
d="M133 942h402v172h176v-332h-402v-782h-176v942z" />
    <glyph glyph-name="Wgrave" unicode="&#x1e80;" horiz-adv-x="1961" 
d="M51 1372h201l326 -971l368 971h70l368 -971l326 971h201l-481 -1409h-70l-379 1012l-381 -1012h-70zM700 1763l131 99l222 -322l-101 -74z" />
    <glyph glyph-name="wgrave" unicode="&#x1e81;" horiz-adv-x="1404" 
d="M31 942h176l209 -606l250 627h71l252 -627l209 606h176l-336 -979h-69l-267 676l-266 -676h-69zM428 1333l131 99l221 -322l-100 -74z" />
    <glyph glyph-name="Wacute" unicode="&#x1e82;" horiz-adv-x="1961" 
d="M51 1372h201l326 -971l368 971h70l368 -971l326 971h201l-481 -1409h-70l-379 1012l-381 -1012h-70zM883 1540l221 322l131 -99l-250 -297z" />
    <glyph glyph-name="wacute" unicode="&#x1e83;" horiz-adv-x="1404" 
d="M31 942h176l209 -606l250 627h71l252 -627l209 606h176l-336 -979h-69l-267 676l-266 -676h-69zM610 1110l221 322l132 -99l-250 -297z" />
    <glyph glyph-name="Wdieresis" unicode="&#x1e84;" horiz-adv-x="1961" 
d="M51 1372h201l326 -971l368 971h70l368 -971l326 971h201l-481 -1409h-70l-379 1012l-381 -1012h-70zM778 1550q-49 0 -82.5 33.5t-33.5 83.5q0 51 33 85t83 34t84.5 -34t34.5 -85q0 -49 -34.5 -83t-84.5 -34zM1167 1550q-49 0 -82.5 33.5t-33.5 83.5q0 51 33 85t83 34
t84.5 -34t34.5 -85q0 -49 -34.5 -83t-84.5 -34z" />
    <glyph glyph-name="wdieresis" unicode="&#x1e85;" horiz-adv-x="1404" 
d="M31 942h176l209 -606l250 627h71l252 -627l209 606h176l-336 -979h-69l-267 676l-266 -676h-69zM508 1120q-50 0 -83.5 34t-33.5 83q0 51 33.5 85t83.5 34t84.5 -34t34.5 -85q0 -49 -34.5 -83t-84.5 -34zM897 1120q-49 0 -83 34t-34 83q0 51 33.5 85t83.5 34t84.5 -34
t34.5 -85q0 -49 -34.5 -83t-84.5 -34z" />
    <glyph glyph-name="uni1E9E" unicode="&#x1e9e;" horiz-adv-x="1359" 
d="M815 -23q-136 0 -209 48l72 165q46 -34 143 -34q122 0 194 69t72 181q0 118 -78.5 187t-209.5 69h-121v133l240 399h-295q-122 0 -195.5 -77t-73.5 -202v-915h-190v911q0 202 129 331.5t330 129.5h544v-69l-286 -478q179 -20 288 -135t109 -282q0 -185 -131.5 -308
t-331.5 -123z" />
    <glyph glyph-name="Ygrave" unicode="&#x1ef2;" horiz-adv-x="1083" 
d="M440 520l-420 852h211l314 -639l321 639h197l-432 -852v-520h-191v520zM272 1763l131 99l222 -322l-101 -74z" />
    <glyph glyph-name="ygrave" unicode="&#x1ef3;" horiz-adv-x="950" 
d="M377 -29l-346 971h190l252 -717l266 717h181l-543 -1454h-180zM203 1333l131 99l221 -322l-100 -74z" />
    <glyph glyph-name="endash" unicode="&#x2013;" horiz-adv-x="993" 
d="M41 610h911v-155h-911v155z" />
    <glyph glyph-name="emdash" unicode="&#x2014;" horiz-adv-x="1443" 
d="M41 610h1362v-155h-1362v155z" />
    <glyph glyph-name="quoteleft" unicode="&#x2018;" horiz-adv-x="385" 
d="M72 1014l123 399l118 -29l-73 -409z" />
    <glyph glyph-name="quoteright" unicode="&#x2019;" horiz-adv-x="385" 
d="M72 1001l73 412l168 -39l-125 -399z" />
    <glyph glyph-name="quotesinglbase" unicode="&#x201a;" horiz-adv-x="385" 
d="M72 -246l73 412l168 -39l-125 -399z" />
    <glyph glyph-name="quotedblleft" unicode="&#x201c;" horiz-adv-x="659" 
d="M72 1014l123 397l116 -27l-73 -411zM346 1010l123 399l119 -29l-76 -409z" />
    <glyph glyph-name="quotedblright" unicode="&#x201d;" horiz-adv-x="659" 
d="M72 1001l73 412l168 -39l-125 -399zM346 999l76 412l166 -41l-123 -397z" />
    <glyph glyph-name="quotedblbase" unicode="&#x201e;" horiz-adv-x="659" 
d="M72 -246l73 412l168 -39l-125 -399zM346 -248l76 412l166 -41l-123 -397z" />
    <glyph glyph-name="dagger" unicode="&#x2020;" horiz-adv-x="1009" 
d="M410 764h-328v178h328v430h190v-430h328v-178h-328l-20 -1276h-150z" />
    <glyph glyph-name="daggerdbl" unicode="&#x2021;" horiz-adv-x="1009" 
d="M422 0h-340v178h338l-10 586h-328v178h328v430h190v-430h328v-178h-328l-8 -586h336v-178h-338l-10 -512h-150z" />
    <glyph glyph-name="bullet" unicode="&#x2022;" horiz-adv-x="714" 
d="M358 373q-66 0 -109.5 43.5t-43.5 107.5q0 66 43.5 110t109.5 44q64 0 108 -44t44 -110q0 -63 -44.5 -107t-107.5 -44z" />
    <glyph glyph-name="ellipsis" unicode="&#x2026;" horiz-adv-x="1568" 
d="M256 -12q-54 0 -88.5 34.5t-34.5 88.5t34.5 88t88.5 34t88.5 -34t34.5 -88t-34.5 -88.5t-88.5 -34.5zM782 -12q-51 0 -85.5 34.5t-34.5 88.5t34 88t88 34q52 0 87.5 -34.5t35.5 -87.5q0 -54 -35.5 -88.5t-89.5 -34.5zM1311 -12q-54 0 -87.5 34.5t-33.5 88.5t34.5 88
t88.5 34q52 0 87.5 -34.5t35.5 -87.5q0 -54 -35.5 -88.5t-89.5 -34.5z" />
    <glyph glyph-name="perthousand" unicode="&#x2030;" horiz-adv-x="2359" 
d="M1040 1372h179l-641 -1372h-181zM377 748q-135 0 -230.5 95t-95.5 230t95.5 228.5t230.5 93.5t230 -94t95 -230q0 -135 -95 -229t-230 -94zM377 895q72 0 119 50.5t47 125.5t-47 125.5t-119 50.5t-119 -50.5t-47 -125.5t47 -125.5t119 -50.5zM1241 -23q-138 0 -232 95
t-94 231q0 135 95.5 228.5t230.5 93.5t229.5 -93.5t94.5 -228.5q0 -136 -94 -231t-230 -95zM1241 125q72 0 118 50t46 126t-46 126t-118 50t-119 -50.5t-47 -125.5t47 -125.5t119 -50.5zM1982 -23q-135 0 -230 95.5t-95 230.5t95 228.5t230 93.5t230.5 -93.5t95.5 -228.5
t-95.5 -230.5t-230.5 -95.5zM1982 125q72 0 119 50.5t47 125.5t-47 125.5t-119 50.5t-118.5 -50.5t-46.5 -125.5t46.5 -125.5t118.5 -50.5z" />
    <glyph glyph-name="guilsinglleft" unicode="&#x2039;" horiz-adv-x="653" 
d="M61 512l381 393l109 -106l-279 -287l279 -287l-109 -106z" />
    <glyph glyph-name="guilsinglright" unicode="&#x203a;" horiz-adv-x="653" 
d="M102 225l279 287l-279 287l109 106l381 -393l-381 -393z" />
    <glyph glyph-name="fraction" unicode="&#x2044;" horiz-adv-x="229" 
d="M346 1372h180l-643 -1372h-180z" />
    <glyph glyph-name="uni2070" unicode="&#x2070;" horiz-adv-x="765" 
d="M383 850q-141 0 -231.5 114.5t-90.5 292.5q0 175 90.5 289.5t231.5 114.5t231.5 -114.5t90.5 -289.5q0 -178 -90.5 -292.5t-231.5 -114.5zM383 995q72 0 115 72t43 190q0 117 -43 188t-115 71t-115 -71t-43 -188q0 -119 43 -190.5t115 -71.5z" />
    <glyph glyph-name="uni2074" unicode="&#x2074;" horiz-adv-x="688" 
d="M375 985h-385v78l454 596h74v-543h98v-131h-98v-113h-143v113zM375 1116v264l-197 -264h197z" />
    <glyph glyph-name="uni2075" unicode="&#x2075;" horiz-adv-x="718" 
d="M336 850q-101 0 -177.5 46.5t-107.5 127.5l123 82q46 -113 160 -113q63 0 101 37t38 98t-40 97.5t-111 36.5q-80 0 -140 -54l-61 33l47 397h430v-131h-305l-14 -129q51 15 90 15q117 0 192.5 -75t75.5 -192q0 -121 -85 -198.5t-216 -77.5z" />
    <glyph glyph-name="uni2076" unicode="&#x2076;" horiz-adv-x="684" 
d="M330 850q-129 0 -209 79.5t-80 209.5q0 147 102 287.5t273 226.5l82 -111q-84 -43 -141 -91t-99 -110q48 25 109 25q107 0 181.5 -73t74.5 -179q0 -115 -84 -189.5t-209 -74.5zM332 981q60 0 96.5 36.5t36.5 94.5q0 59 -36 91t-97 32t-97 -32.5t-36 -88.5
q0 -60 36.5 -96.5t96.5 -36.5z" />
    <glyph glyph-name="uni2077" unicode="&#x2077;" horiz-adv-x="595" 
d="M408 1495h-357v143h555v-69l-309 -697h-168z" />
    <glyph glyph-name="uni2078" unicode="&#x2078;" horiz-adv-x="747" 
d="M373 850q-127 0 -209 68.5t-82 171.5q0 125 113 192q-82 63 -82 158q0 93 75 157t185 64t186 -64.5t76 -156.5q0 -97 -86 -158q117 -70 117 -192q0 -104 -84 -172t-209 -68zM373 981q61 0 98 32.5t37 84.5q0 54 -36.5 85t-98.5 31t-97.5 -31t-35.5 -85q0 -52 36 -84.5
t97 -32.5zM373 1339q47 0 75.5 26.5t28.5 68.5t-28.5 69t-75.5 27t-75 -27t-28 -69t28 -68.5t75 -26.5z" />
    <glyph glyph-name="uni2079" unicode="&#x2079;" horiz-adv-x="681" 
d="M186 969q158 81 240 200q-46 -24 -111 -24q-107 0 -180.5 73t-73.5 179q0 115 83 189.5t210 74.5q129 0 208 -79.5t79 -209.5q0 -147 -101 -287.5t-272 -226.5zM352 1276q60 0 95.5 32t35.5 89q0 60 -35.5 96.5t-95.5 36.5t-96.5 -37t-36.5 -94q0 -59 36 -91t97 -32z" />
    <glyph glyph-name="uni2080" unicode="&#x2080;" horiz-adv-x="765" 
d="M383 -268q-141 0 -231.5 114.5t-90.5 292.5q0 175 90.5 289.5t231.5 114.5t231.5 -114.5t90.5 -289.5q0 -178 -90.5 -292.5t-231.5 -114.5zM383 -123q72 0 115 72t43 190q0 117 -43 187.5t-115 70.5t-115 -70.5t-43 -187.5q0 -119 43 -190.5t115 -71.5z" />
    <glyph glyph-name="uni2081" unicode="&#x2081;" horiz-adv-x="600" 
d="M287 313l-170 -118l-76 114l334 232h71v-787h-159v559z" />
    <glyph glyph-name="uni2082" unicode="&#x2082;" horiz-adv-x="739" 
d="M63 -182l248 225q98 91 129 135t31 90q0 60 -32.5 95.5t-86.5 35.5q-56 0 -91 -40t-46 -113l-154 39q23 122 101 190t196 68q123 0 200 -73t77 -187q0 -74 -42.5 -138.5t-154.5 -164.5l-94 -82h313v-144h-594v64z" />
    <glyph glyph-name="uni2083" unicode="&#x2083;" horiz-adv-x="729" 
d="M352 -268q-103 0 -181.5 46.5t-109.5 125.5l127 80q47 -109 162 -109q61 0 97 31.5t36 85.5q0 57 -41.5 88t-119.5 31h-105v71l193 207h-297v131h514v-69l-203 -226q103 -17 163 -81t60 -158q0 -112 -83.5 -183t-211.5 -71z" />
    <glyph glyph-name="uni2084" unicode="&#x2084;" horiz-adv-x="688" 
d="M375 -133h-385v78l454 596h74v-543h98v-131h-98v-113h-143v113zM375 -2v264l-197 -264h197z" />
    <glyph glyph-name="uni2085" unicode="&#x2085;" horiz-adv-x="718" 
d="M336 -268q-101 0 -177.5 46.5t-107.5 127.5l123 82q46 -113 160 -113q63 0 101 37t38 98t-40 97t-111 36q-81 0 -140 -53l-61 33l47 397h430v-131h-305l-14 -129q47 14 90 14q117 0 192.5 -74.5t75.5 -191.5q0 -121 -85 -198.5t-216 -77.5z" />
    <glyph glyph-name="uni2086" unicode="&#x2086;" horiz-adv-x="684" 
d="M330 -268q-129 0 -209 79t-80 209q0 147 102 288t273 227l82 -111q-84 -43 -141 -91t-99 -110q48 25 109 25q107 0 181.5 -73t74.5 -179q0 -115 -84 -189.5t-209 -74.5zM332 -137q60 0 96.5 36.5t36.5 94.5q0 59 -36 91t-97 32t-97 -32.5t-36 -88.5q0 -60 36.5 -96.5
t96.5 -36.5z" />
    <glyph glyph-name="uni2087" unicode="&#x2087;" horiz-adv-x="595" 
d="M408 377h-357v143h555v-69l-309 -697h-168z" />
    <glyph glyph-name="uni2088" unicode="&#x2088;" horiz-adv-x="747" 
d="M373 -268q-127 0 -209 68t-82 171q0 126 113 193q-82 63 -82 158q0 93 75 157t185 64t186 -64.5t76 -156.5q0 -97 -86 -158q117 -70 117 -193q0 -104 -84 -171.5t-209 -67.5zM373 -137q61 0 98 32.5t37 84.5q0 54 -36.5 85t-98.5 31t-97.5 -31t-35.5 -85q0 -52 36 -84.5
t97 -32.5zM373 221q47 0 75.5 26t28.5 68t-28.5 69.5t-75.5 27.5q-46 0 -74.5 -27.5t-28.5 -69.5t28 -68t75 -26z" />
    <glyph glyph-name="uni2089" unicode="&#x2089;" horiz-adv-x="681" 
d="M186 -150q84 43 141 91t99 110q-46 -24 -111 -24q-107 0 -180.5 73t-73.5 179q0 115 83 189.5t210 74.5q129 0 208 -79.5t79 -209.5q0 -147 -101 -287.5t-272 -226.5zM352 158q60 0 95.5 32t35.5 89q0 60 -35.5 96.5t-95.5 36.5t-96.5 -37t-36.5 -94q0 -59 36 -91t97 -32
z" />
    <glyph glyph-name="Euro" unicode="&#x20ac;" horiz-adv-x="1253" 
d="M752 -23q-207 0 -355 138t-198 368h-158v146h139v53v53h-139v146h158q50 231 198.5 372.5t354.5 141.5q257 0 450 -242l-141 -123q-74 94 -145.5 136t-159.5 42q-132 0 -221.5 -85t-126.5 -242h440l-33 -146h-430q-2 -14 -2 -49q0 -39 2 -57h408l-31 -146h-352
q38 -154 128.5 -236.5t223.5 -82.5q90 0 161.5 42t143.5 136l135 -121q-188 -244 -450 -244z" />
    <glyph glyph-name="uni20B4" unicode="&#x20b4;" horiz-adv-x="1105" 
d="M547 -23q-174 0 -285.5 93.5t-111.5 238.5q0 95 47 172h-95v144h902v-144h-607q-57 -63 -57 -139q0 -88 60 -139t163 -51q170 0 258 149l131 -108q-66 -104 -171 -160t-234 -56zM102 874h586q72 69 72 156t-57.5 139t-155.5 52q-163 0 -252 -150l-137 115
q63 99 166.5 154t230.5 55q176 0 285.5 -94t109.5 -242q0 -103 -55 -185h109v-143h-902v143z" />
    <glyph glyph-name="uni20BD" unicode="&#x20bd;" horiz-adv-x="1099" 
d="M180 266h-139v142h139v108h-139v174h139v682h355q211 0 347 -120.5t136 -307.5q0 -189 -134.5 -309.5t-344.5 -120.5h-168v-106h377v-142h-377v-266h-191v266zM535 692q134 0 213 67.5t79 184.5q0 115 -79 182.5t-213 67.5h-164v-502h164z" />
    <glyph glyph-name="uni2116" unicode="&#x2116;" horiz-adv-x="2269" 
d="M375 981v-981h-191v1409h70l874 -1018v981h191v-1409h-70zM1528 649h629v-160h-629v160zM1843 748q-138 0 -231.5 94.5t-93.5 230.5q0 135 95 228.5t230 93.5t229.5 -94t94.5 -230q0 -135 -94 -229t-230 -94zM1843 895q72 0 118 50t46 126t-46 126t-118 50t-119 -50.5
t-47 -125.5t47 -125.5t119 -50.5z" />
    <glyph glyph-name="trademark" unicode="&#x2122;" horiz-adv-x="1271" 
d="M195 1268h-175v127h486v-127h-174v-494h-137v494zM561 1405h70l239 -318l240 318h70v-631h-138v332l-141 -191h-61l-142 191v-332h-137v631z" />
    <glyph glyph-name="arrowleft" unicode="&#x2190;" horiz-adv-x="2048" 
d="M819 143q-25 88 -53.5 156.5t-71.5 135.5t-94.5 110.5t-125 70.5t-161.5 27h-6v127h6q88 0 161 26.5t125.5 71t95.5 110.5t71.5 135.5t52.5 156.5h225q-63 -316 -299 -473h996v-181h-996q236 -157 299 -473h-225z" />
    <glyph glyph-name="arrowup" unicode="&#x2191;" horiz-adv-x="2048" 
d="M934 995q-157 -236 -473 -299v226q88 25 156.5 53t135.5 71t110.5 95t70.5 125t27 161v7h126v-7q0 -88 26.5 -161t71 -125t110.5 -95t135.5 -71t156.5 -53v-226q-316 63 -473 299v-995h-180v995z" />
    <glyph glyph-name="arrowright" unicode="&#x2192;" horiz-adv-x="2048" 
d="M1004 143q63 316 299 473h-996v181h996q-236 157 -299 473h225q24 -87 52.5 -156.5t71.5 -135.5t95.5 -110.5t125.5 -71t161 -26.5h6v-127h-6q-88 0 -161.5 -27t-125 -70.5t-94.5 -110.5t-71.5 -135.5t-53.5 -156.5h-225z" />
    <glyph glyph-name="arrowdown" unicode="&#x2193;" horiz-adv-x="2048" 
d="M961 6q0 88 -27 161.5t-70.5 125t-110.5 94.5t-135.5 71.5t-156.5 53.5v225q316 -63 473 -299v996h180v-996q157 236 473 299v-225q-87 -24 -156.5 -52.5t-135.5 -71.5t-110.5 -95.5t-71 -125.5t-26.5 -161v-6h-126v6z" />
    <glyph glyph-name="uni2196" unicode="&#x2196;" horiz-adv-x="2048" 
d="M754 825q58 -273 -123 -544l-158 157q44 80 73 149t45.5 146.5t10.5 145.5t-39 138.5t-96 133.5l-4 4l90 90l4 -4q63 -63 133.5 -96t138.5 -39t145 10.5t145.5 45.5t148.5 73l159 -158q-271 -181 -544 -123l702 -704l-127 -127z" />
    <glyph glyph-name="uni2197" unicode="&#x2197;" horiz-adv-x="2048" 
d="M463 250l702 704q-273 -58 -544 123l159 158q80 -44 148.5 -73t145.5 -45.5t145 -10.5t138.5 39t133.5 96l4 4l90 -90l-4 -4q-63 -63 -96 -133.5t-39 -138.5t10.5 -145.5t45.5 -146.5t73 -149l-158 -157q-181 271 -123 544l-704 -702z" />
    <glyph glyph-name="uni2198" unicode="&#x2198;" horiz-adv-x="2048" 
d="M1491 147q-78 78 -165.5 111.5t-180.5 23.5t-178.5 -41t-186.5 -87l-159 157q271 181 544 123l-702 705l127 127l704 -703q-29 135 3.5 274.5t119.5 270.5l158 -158q-44 -80 -73 -149t-45.5 -146.5t-10.5 -145t39 -138t96 -133.5l4 -5l-90 -90z" />
    <glyph glyph-name="uni2199" unicode="&#x2199;" horiz-adv-x="2048" 
d="M463 233l4 5q63 63 96 133.5t39 138t-10.5 145t-45.5 146.5t-73 149l158 158q87 -131 119.5 -270.5t3.5 -274.5l704 703l127 -127l-702 -705q273 58 544 -123l-159 -157q-101 56 -186.5 87t-178.5 41t-180.5 -23.5t-165.5 -111.5l-4 -4z" />
    <glyph glyph-name="minus" unicode="&#x2212;" horiz-adv-x="911" 
d="M61 745h789v-159h-789v159z" />
    <glyph glyph-name="approxequal" unicode="&#x2248;" horiz-adv-x="911" 
d="M602 371q-81 0 -186 59q-5 3 -15 7q-71 35 -94 37q-5 1 -12 1q-72 0 -121 -100l-113 69q30 91 95 140t151 49q41 0 82 -13.5t107 -48.5q77 -43 116 -43q41 0 69.5 23.5t53.5 75.5l115 -70q-30 -90 -95.5 -138t-152.5 -48zM602 694q-79 0 -186 60q-53 29 -75 37t-46 8
q-75 0 -121 -99l-113 70q30 90 95 138t151 48q42 0 83 -13t106 -48q50 -26 72 -34.5t44 -8.5q40 0 69 23.5t54 74.5l115 -69q-30 -91 -96 -139t-152 -48z" />
    <glyph glyph-name="notequal" unicode="&#x2260;" horiz-adv-x="911" 
d="M205 416h-144v155h248l127 189h-375v160h482l102 151h164l-102 -151h143v-160h-250l-127 -189h377v-155h-481l-103 -156h-164z" />
    <glyph glyph-name="lessequal" unicode="&#x2264;" horiz-adv-x="911" 
d="M61 344h789v-160h-789v160zM61 705v147l715 336l68 -141l-576 -267l576 -268l-66 -141z" />
    <glyph glyph-name="greaterequal" unicode="&#x2265;" horiz-adv-x="911" 
d="M61 344h789v-160h-789v160zM68 512l573 268l-573 267l67 141l715 -336v-147l-717 -334z" />
    <glyph glyph-name="uniF6D1" unicode="&#xf6d1;" horiz-adv-x="591" 
d="M297 1061q-124 0 -200.5 77t-76.5 205h152q0 -68 34.5 -108.5t90.5 -40.5t89.5 41t33.5 108h151q0 -128 -75 -205t-199 -77z" />
    <glyph glyph-name="uniF6D4" unicode="&#xf6d4;" horiz-adv-x="571" 
d="M285 1061q-119 0 -192 77t-73 205h152q0 -68 31.5 -108.5t81.5 -40.5q53 0 83.5 40.5t30.5 108.5h152q0 -129 -72 -205.5t-194 -76.5z" />
    <glyph glyph-name="s_t" unicode="&#xfb06;" horiz-adv-x="1660" 
d="M463 -23q-127 0 -233.5 49t-178.5 144l117 121q124 -154 303 -154q86 0 135 30.5t49 86.5q0 49 -44.5 79.5t-151.5 57.5q-182 44 -263 115t-81 182q0 127 92 202t248 75q37 0 94 -11q-37 82 -37 166q0 156 111.5 258.5t277.5 102.5q165 0 273 -98.5t108 -245.5
q0 -112 -68 -195h338v-160h-270v-497q0 -72 32.5 -110t94.5 -38q77 0 139 62l82 -117q-94 -105 -244 -105q-132 0 -206 79.5t-74 217.5v508h-143v160q68 6 109.5 56t41.5 128q0 91 -57.5 147t-155.5 56q-99 0 -156 -58.5t-57 -160.5q0 -143 139 -307l-112 -119
q-104 121 -266 121q-76 0 -117 -26.5t-41 -76.5q0 -49 43 -78.5t149 -56.5q183 -42 265.5 -114.5t82.5 -184.5q0 -131 -101 -211t-267 -80z" />
    <glyph glyph-name="c_h" horiz-adv-x="2101" 
d="M573 -23q-133 0 -246 66.5t-179 180t-66 247.5t65 247.5t177.5 180t246.5 66.5q45 0 111 -15q-41 98 -41 176q0 153 103.5 254t259.5 101q149 0 244 -93t95 -243v-324q114 144 279 144q155 0 255.5 -109.5t100.5 -275.5v-580h-176v547q0 117 -61.5 187.5t-165.5 70.5
t-168 -71.5t-64 -188.5v-545h-176v1143q0 86 -45 136t-123 50q-84 0 -133 -58t-49 -157q0 -87 38.5 -169.5t109.5 -174.5l-125 -111q-107 140 -269 140q-134 0 -220.5 -93t-86.5 -233q0 -143 89 -236.5t225 -93.5q162 0 274 140l119 -107q-68 -93 -172 -146t-226 -53z" />
    <glyph glyph-name="c_k" horiz-adv-x="1970" 
d="M571 -23q-135 0 -247.5 65t-177 178t-64.5 249q0 134 65 248t177.5 181t246.5 67q45 0 111 -15q-41 98 -41 176q0 153 103.5 254t259.5 101q149 0 244 -93.5t95 -244.5v-639l386 438h206l-399 -446l424 -496h-227l-390 457v-457h-176v1143q0 86 -45 136t-123 50
q-84 0 -133 -58t-49 -157q0 -87 38.5 -169.5t109.5 -174.5l-125 -111q-107 140 -269 140q-134 0 -220.5 -93t-86.5 -233q0 -143 89 -236.5t225 -93.5q162 0 274 140l119 -107q-68 -93 -173 -146t-227 -53z" />
    <glyph glyph-name="c_t" horiz-adv-x="1787" 
d="M571 -23q-135 0 -247.5 65t-177 178t-64.5 249q0 134 65 248t177.5 181t246.5 67q53 0 103 -13q-3 10 -12.5 34.5t-13.5 39t-8.5 43t-4.5 61.5q0 157 113.5 254t285.5 97q164 0 269.5 -97t105.5 -245q0 -114 -68 -197h338v-160h-268v-497q0 -72 32 -110t93 -38
q77 0 139 62l82 -117q-91 -105 -244 -105q-130 0 -204 80t-74 217v508h-145v160q69 6 110 56t41 128q0 92 -56.5 147.5t-152.5 55.5q-100 0 -160.5 -63t-60.5 -174q0 -68 33 -139t121 -183l-125 -111q-107 140 -269 140q-134 0 -220.5 -93t-86.5 -233q0 -143 89 -236.5
t225 -93.5q162 0 274 140l119 -107q-68 -93 -173 -146t-227 -53z" />
    <glyph glyph-name="s_p" horiz-adv-x="2072" 
d="M1040 942q82 51 82 172q0 98 -57.5 156.5t-155.5 58.5q-99 0 -160 -62t-61 -161q0 -138 139 -303l-112 -119q-104 121 -266 121q-76 0 -117 -26.5t-41 -76.5q0 -49 43 -78.5t149 -56.5q183 -42 265.5 -114.5t82.5 -184.5q0 -131 -101 -211t-267 -80q-127 0 -233.5 49
t-178.5 144l117 121q124 -154 303 -154q86 0 135 30.5t49 86.5q0 49 -44.5 79.5t-151.5 57.5q-182 44 -263 115t-81 182q0 127 92 202t248 75q37 0 94 -11q-2 5 -7 20t-6.5 21t-6 19.5t-6 21.5t-4.5 21t-4 23t-2 23.5t-1 26.5q0 157 112 254t283 97q165 0 273 -97.5
t108 -250.5q0 -123 -78 -213v-119q57 77 141.5 120.5t186.5 43.5q191 0 322 -142.5t131 -351.5q0 -205 -134 -349.5t-325 -144.5q-97 0 -177.5 39t-137.5 109v-594h-177v1411zM1505 143q131 0 217 93t86 235t-86.5 235t-216.5 93q-134 0 -220.5 -93t-86.5 -235
q0 -143 86 -235.5t221 -92.5z" />
    <glyph glyph-name="I.alt" horiz-adv-x="710" 
d="M72 160h188v1052h-188v160h567v-160h-188v-1052h188v-160h-567v160z" />
    <glyph glyph-name="a.alt" horiz-adv-x="1165" 
d="M535 -23q-191 0 -322 142.5t-131 351.5q0 205 134 349.5t325 144.5q97 0 180 -40.5t141 -113.5v131h170v-942h-170v141q-57 -77 -141 -120.5t-186 -43.5zM567 143q134 0 220.5 93t86.5 235q0 143 -86 235.5t-221 92.5q-131 0 -217 -93t-86 -235t86.5 -235t216.5 -93z" />
    <glyph glyph-name="g.alt" horiz-adv-x="1165" 
d="M567 143q133 0 221.5 93.5t88.5 234.5q0 142 -88 235t-222 93q-131 0 -217 -93t-86 -235t86.5 -235t216.5 -93zM561 -512q-118 0 -218.5 47t-168.5 133l127 117q89 -131 258 -131q132 0 214.5 83.5t82.5 219.5v178q-122 -158 -321 -158q-191 0 -322 142.5t-131 351.5
q0 205 134 349.5t325 144.5q97 0 180 -40.5t141 -113.5v131h170v-985q0 -205 -132 -337t-339 -132z" />
    <glyph glyph-name="l.alt" horiz-adv-x="593" 
d="M399 -23q-123 0 -194.5 80t-71.5 219v1178h176v-1175q0 -69 28.5 -105.5t82.5 -36.5q61 0 112 51l82 -116q-89 -95 -215 -95z" />
    <glyph glyph-name="y.alt" 
d="M489 -512q-110 0 -204.5 46t-161.5 134l127 117q88 -131 237 -131q124 0 198.5 82t74.5 221v164q-114 -144 -281 -144q-155 0 -255.5 109.5t-100.5 275.5v580h176v-547q0 -116 62 -184t167 -68t168.5 69t63.5 185v545h176v-989q0 -202 -127 -333.5t-320 -131.5z" />
    <glyph glyph-name="Igrave.alt" horiz-adv-x="710" 
d="M72 160h188v1052h-188v160h567v-160h-188v-1052h188v-160h-567v160zM80 1763l131 99l221 -322l-100 -74z" />
    <glyph glyph-name="Iacute.alt" horiz-adv-x="710" 
d="M72 160h188v1052h-188v160h567v-160h-188v-1052h188v-160h-567v160zM262 1540l221 322l131 -99l-249 -297z" />
    <glyph glyph-name="Icircumflex.alt" horiz-adv-x="710" 
d="M72 160h188v1052h-188v160h567v-160h-188v-1052h188v-160h-567v160zM63 1614l291 192l291 -192l-70 -117l-221 141l-219 -141z" />
    <glyph glyph-name="Idieresis.alt" horiz-adv-x="710" 
d="M72 160h188v1052h-188v160h567v-160h-188v-1052h188v-160h-567v160zM160 1550q-50 0 -83.5 34t-33.5 83q0 51 33.5 85t83.5 34t84.5 -34t34.5 -85q0 -49 -34.5 -83t-84.5 -34zM549 1550q-49 0 -83 34t-34 83q0 51 33.5 85t83.5 34t84.5 -34t34.5 -85q0 -49 -34.5 -83
t-84.5 -34z" />
    <glyph glyph-name="agrave.alt" horiz-adv-x="1165" 
d="M535 -23q-191 0 -322 142.5t-131 351.5q0 205 134 349.5t325 144.5q97 0 180 -40.5t141 -113.5v131h170v-942h-170v141q-57 -77 -141 -120.5t-186 -43.5zM567 143q134 0 220.5 93t86.5 235q0 143 -86 235.5t-221 92.5q-131 0 -217 -93t-86 -235t86.5 -235t216.5 -93z
M303 1333l131 99l221 -322l-100 -74z" />
    <glyph glyph-name="aacute.alt" horiz-adv-x="1165" 
d="M535 -23q-191 0 -322 142.5t-131 351.5q0 205 134 349.5t325 144.5q97 0 180 -40.5t141 -113.5v131h170v-942h-170v141q-57 -77 -141 -120.5t-186 -43.5zM567 143q134 0 220.5 93t86.5 235q0 143 -86 235.5t-221 92.5q-131 0 -217 -93t-86 -235t86.5 -235t216.5 -93z
M485 1110l222 322l131 -99l-250 -297z" />
    <glyph glyph-name="acircumflex.alt" horiz-adv-x="1165" 
d="M535 -23q-191 0 -322 142.5t-131 351.5q0 205 134 349.5t325 144.5q97 0 180 -40.5t141 -113.5v131h170v-942h-170v141q-57 -77 -141 -120.5t-186 -43.5zM567 143q134 0 220.5 93t86.5 235q0 143 -86 235.5t-221 92.5q-131 0 -217 -93t-86 -235t86.5 -235t216.5 -93z
M285 1184l290 192l291 -192l-69 -117l-222 141l-219 -141z" />
    <glyph glyph-name="atilde.alt" horiz-adv-x="1165" 
d="M535 -23q-191 0 -322 142.5t-131 351.5q0 205 134 349.5t325 144.5q97 0 180 -40.5t141 -113.5v131h170v-942h-170v141q-57 -77 -141 -120.5t-186 -43.5zM567 143q134 0 220.5 93t86.5 235q0 143 -86 235.5t-221 92.5q-131 0 -217 -93t-86 -235t86.5 -235t216.5 -93z
M289 1194q25 74 73.5 115t110.5 41q9 0 17.5 -1t15.5 -2.5t15.5 -4t13.5 -4.5t13.5 -6t11.5 -5.5t11.5 -6t10.5 -5.5q64 -37 90 -37q27 0 45 16.5t35 57.5l112 -70q-23 -73 -72 -114.5t-112 -41.5q-49 0 -111 37q-57 35 -90 35q-25 0 -42 -15.5t-36 -56.5z" />
    <glyph glyph-name="adieresis.alt" horiz-adv-x="1165" 
d="M535 -23q-191 0 -322 142.5t-131 351.5q0 205 134 349.5t325 144.5q97 0 180 -40.5t141 -113.5v131h170v-942h-170v141q-57 -77 -141 -120.5t-186 -43.5zM567 143q134 0 220.5 93t86.5 235q0 143 -86 235.5t-221 92.5q-131 0 -217 -93t-86 -235t86.5 -235t216.5 -93z
M381 1120q-49 0 -83 34t-34 83q0 51 33.5 85t83.5 34t84.5 -34t34.5 -85q0 -49 -34.5 -83t-84.5 -34zM770 1120q-50 0 -83.5 34t-33.5 83q0 51 33.5 85t83.5 34t84.5 -34t34.5 -85q0 -49 -34.5 -83t-84.5 -34z" />
    <glyph glyph-name="aring.alt" horiz-adv-x="1165" 
d="M535 -23q-191 0 -322 142.5t-131 351.5q0 205 134 349.5t325 144.5q97 0 180 -40.5t141 -113.5v131h170v-942h-170v141q-57 -77 -141 -120.5t-186 -43.5zM567 143q134 0 220.5 93t86.5 235q0 143 -86 235.5t-221 92.5q-131 0 -217 -93t-86 -235t86.5 -235t216.5 -93z
M575 1014q-90 0 -152.5 60t-62.5 147q0 85 62.5 145.5t152.5 60.5q91 0 154.5 -60t63.5 -146q0 -87 -63 -147t-155 -60zM575 1126q41 0 69 27t28 68t-27.5 67.5t-69.5 26.5q-41 0 -67.5 -26.5t-26.5 -67.5t26.5 -68t67.5 -27z" />
    <glyph glyph-name="yacute.alt" 
d="M489 -512q-110 0 -204.5 46t-161.5 134l127 117q88 -131 237 -131q124 0 198.5 82t74.5 221v164q-114 -144 -281 -144q-155 0 -255.5 109.5t-100.5 275.5v580h176v-547q0 -116 62 -184t167 -68t168.5 69t63.5 185v545h176v-989q0 -202 -127 -333.5t-320 -131.5zM440 1110
l222 322l131 -99l-250 -297z" />
    <glyph glyph-name="ydieresis.alt" 
d="M489 -512q-110 0 -204.5 46t-161.5 134l127 117q88 -131 237 -131q124 0 198.5 82t74.5 221v164q-114 -144 -281 -144q-155 0 -255.5 109.5t-100.5 275.5v580h176v-547q0 -116 62 -184t167 -68t168.5 69t63.5 185v545h176v-989q0 -202 -127 -333.5t-320 -131.5zM338 1120
q-50 0 -83.5 34t-33.5 83q0 51 33.5 85t83.5 34t84.5 -34t34.5 -85q0 -49 -34.5 -83t-84.5 -34zM727 1120q-49 0 -83 34t-34 83q0 51 33.5 85t83.5 34t84.5 -34t34.5 -85q0 -49 -34.5 -83t-84.5 -34z" />
    <glyph glyph-name="amacron.alt" horiz-adv-x="1165" 
d="M535 -23q-191 0 -322 142.5t-131 351.5q0 205 134 349.5t325 144.5q97 0 180 -40.5t141 -113.5v131h170v-942h-170v141q-57 -77 -141 -120.5t-186 -43.5zM567 143q134 0 220.5 93t86.5 235q0 143 -86 235.5t-221 92.5q-131 0 -217 -93t-86 -235t86.5 -235t216.5 -93z
M348 1307h455v-144h-455v144z" />
    <glyph glyph-name="abreve.alt" horiz-adv-x="1165" 
d="M535 -23q-191 0 -322 142.5t-131 351.5q0 205 134 349.5t325 144.5q97 0 180 -40.5t141 -113.5v131h170v-942h-170v141q-57 -77 -141 -120.5t-186 -43.5zM567 143q134 0 220.5 93t86.5 235q0 143 -86 235.5t-221 92.5q-131 0 -217 -93t-86 -235t86.5 -235t216.5 -93z
M575 1065q-119 0 -190.5 75t-71.5 199h140q0 -62 33.5 -99.5t88.5 -37.5q56 0 90.5 37.5t34.5 99.5h140q0 -126 -72.5 -200t-192.5 -74z" />
    <glyph glyph-name="aogonek.alt" horiz-adv-x="1165" 
d="M567 143q134 0 220.5 93t86.5 235q0 143 -86 235.5t-221 92.5q-131 0 -217 -93t-86 -235t86.5 -235t216.5 -93zM909 -522q-119 0 -189.5 60.5t-70.5 164.5q0 86 53 158t168 139h-8v141q-57 -77 -141 -120.5t-186 -43.5q-191 0 -322 142.5t-131 351.5q0 205 134 349.5
t325 144.5q97 0 180 -40.5t141 -113.5v131h170v-942q-131 -94 -177 -148t-46 -114q0 -121 133 -121q40 0 86 12v-135q-47 -16 -119 -16z" />
    <glyph glyph-name="gcircumflex.alt" horiz-adv-x="1165" 
d="M567 143q133 0 221.5 93.5t88.5 234.5q0 142 -88 235t-222 93q-131 0 -217 -93t-86 -235t86.5 -235t216.5 -93zM561 -512q-118 0 -218.5 47t-168.5 133l127 117q89 -131 258 -131q132 0 214.5 83.5t82.5 219.5v178q-122 -158 -321 -158q-191 0 -322 142.5t-131 351.5
q0 205 134 349.5t325 144.5q97 0 180 -40.5t141 -113.5v131h170v-985q0 -205 -132 -337t-339 -132zM285 1184l290 192l291 -192l-69 -117l-222 141l-219 -141z" />
    <glyph glyph-name="gbreve.alt" horiz-adv-x="1165" 
d="M567 143q133 0 221.5 93.5t88.5 234.5q0 142 -88 235t-222 93q-131 0 -217 -93t-86 -235t86.5 -235t216.5 -93zM561 -512q-118 0 -218.5 47t-168.5 133l127 117q89 -131 258 -131q132 0 214.5 83.5t82.5 219.5v178q-122 -158 -321 -158q-191 0 -322 142.5t-131 351.5
q0 205 134 349.5t325 144.5q97 0 180 -40.5t141 -113.5v131h170v-985q0 -205 -132 -337t-339 -132zM575 1065q-119 0 -190.5 75t-71.5 199h140q0 -62 33.5 -99.5t88.5 -37.5q56 0 90.5 37.5t34.5 99.5h140q0 -126 -72.5 -200t-192.5 -74z" />
    <glyph glyph-name="gdotaccent.alt" horiz-adv-x="1165" 
d="M567 143q133 0 221.5 93.5t88.5 234.5q0 142 -88 235t-222 93q-131 0 -217 -93t-86 -235t86.5 -235t216.5 -93zM561 -512q-118 0 -218.5 47t-168.5 133l127 117q89 -131 258 -131q132 0 214.5 83.5t82.5 219.5v178q-122 -158 -321 -158q-191 0 -322 142.5t-131 351.5
q0 205 134 349.5t325 144.5q97 0 180 -40.5t141 -113.5v131h170v-985q0 -205 -132 -337t-339 -132zM575 1120q-49 0 -82.5 33.5t-33.5 83.5q0 51 33 85t83 34t84.5 -34t34.5 -85q0 -49 -34.5 -83t-84.5 -34z" />
    <glyph glyph-name="gcommaaccent.alt" horiz-adv-x="1165" 
d="M567 143q133 0 221.5 93.5t88.5 234.5q0 142 -88 235t-222 93q-131 0 -217 -93t-86 -235t86.5 -235t216.5 -93zM561 -512q-118 0 -218.5 47t-168.5 133l127 117q89 -131 258 -131q132 0 214.5 83.5t82.5 219.5v178q-122 -158 -321 -158q-191 0 -322 142.5t-131 351.5
q0 205 134 349.5t325 144.5q97 0 180 -40.5t141 -113.5v131h170v-985q0 -205 -132 -337t-339 -132zM489 1104l136 393l114 -31l-84 -409z" />
    <glyph glyph-name="Imacron.alt" horiz-adv-x="710" 
d="M72 160h188v1052h-188v160h567v-160h-188v-1052h188v-160h-567v160zM127 1737h455v-144h-455v144z" />
    <glyph glyph-name="Ibreve.alt" horiz-adv-x="710" 
d="M72 160h188v1052h-188v160h567v-160h-188v-1052h188v-160h-567v160zM352 1495q-119 0 -190.5 75t-71.5 199h139q0 -62 34 -99.5t89 -37.5q56 0 90.5 37.5t34.5 99.5h139q0 -126 -72 -200t-192 -74z" />
    <glyph glyph-name="Iogonek.alt" horiz-adv-x="710" 
d="M516 -522q-119 0 -189.5 60.5t-70.5 164.5q0 86 53 158t168 139h-405v160h188v1052h-188v160h567v-160h-188v-1052h188v-160q-131 -94 -177 -148t-46 -114q0 -121 133 -121q39 0 86 12v-135q-47 -16 -119 -16z" />
    <glyph glyph-name="Idotaccent.alt" horiz-adv-x="710" 
d="M72 160h188v1052h-188v160h567v-160h-188v-1052h188v-160h-567v160zM352 1550q-49 0 -82.5 33.5t-33.5 83.5q0 51 33 85t83 34t84.5 -34t34.5 -85q0 -49 -34.5 -83t-84.5 -34z" />
    <glyph glyph-name="lacute.alt" horiz-adv-x="595" 
d="M401 -23q-123 0 -194.5 80t-71.5 219v1178h176v-1175q0 -69 28.5 -105.5t82.5 -36.5q62 0 113 51l81 -116q-89 -95 -215 -95zM133 1581l221 322l131 -99l-249 -297z" />
    <glyph glyph-name="lcommaaccent.alt" horiz-adv-x="593" 
d="M399 -23q-123 0 -194.5 80t-71.5 219v1178h176v-1175q0 -69 28.5 -105.5t82.5 -36.5q61 0 112 51l82 -116q-89 -95 -215 -95zM231 -510l84 408l166 -43l-131 -398z" />
    <glyph glyph-name="lcaron.alt" horiz-adv-x="651" 
d="M399 -23q-123 0 -194.5 80t-71.5 219v1178h176v-1175q0 -69 28.5 -105.5t82.5 -36.5q61 0 112 51l82 -116q-89 -95 -215 -95zM412 1100l73 379l166 -41l-121 -367z" />
    <glyph glyph-name="ldot.alt" horiz-adv-x="696" 
d="M737 207q-123 0 -194.5 80t-71.5 219v1177h176v-1175q0 -69 28.5 -105t82.5 -36q61 0 112 51l82 -117q-88 -94 -215 -94zM223 401q-51 0 -86 34.5t-35 88.5t34.5 88.5t88.5 34.5t88.5 -34.5t34.5 -88.5t-35.5 -88.5t-89.5 -34.5z" />
    <glyph glyph-name="lslash.alt" horiz-adv-x="634" 
d="M430 -23q-124 0 -195 79.5t-71 219.5v353l-144 -82v168l144 82v657h176v-555l184 107v-168l-184 -107v-452q0 -142 109 -142q63 0 114 51l82 -116q-89 -95 -215 -95z" />
    <glyph glyph-name="ycircumflex.alt" 
d="M489 -512q-110 0 -204.5 46t-161.5 134l127 117q88 -131 237 -131q124 0 198.5 82t74.5 221v164q-114 -144 -281 -144q-155 0 -255.5 109.5t-100.5 275.5v580h176v-547q0 -116 62 -184t167 -68t168.5 69t63.5 185v545h176v-989q0 -202 -127 -333.5t-320 -131.5zM242 1184
l290 192l291 -192l-69 -117l-222 141l-219 -141z" />
    <glyph glyph-name="aringacute.alt" horiz-adv-x="1165" 
d="M535 -23q-191 0 -322 142.5t-131 351.5q0 205 134 349.5t325 144.5q97 0 180 -40.5t141 -113.5v131h170v-942h-170v141q-57 -77 -141 -120.5t-186 -43.5zM567 143q134 0 220.5 93t86.5 235q0 143 -86 235.5t-221 92.5q-131 0 -217 -93t-86 -235t86.5 -235t216.5 -93z
M578 1016q-91 0 -153.5 59t-62.5 146q0 82 63 142t153 60t153.5 -60t63.5 -142q0 -87 -63 -146t-154 -59zM578 1128q42 0 69 26t27 67q0 38 -27.5 64t-68.5 26t-68 -26t-27 -64q0 -41 27 -67t68 -26zM467 1559l328 213l84 -140l-347 -180z" />
    <glyph glyph-name="uni0233.alt" 
d="M489 -512q-110 0 -204.5 46t-161.5 134l127 117q88 -131 237 -131q124 0 198.5 82t74.5 221v164q-114 -144 -281 -144q-155 0 -255.5 109.5t-100.5 275.5v580h176v-547q0 -116 62 -184t167 -68t168.5 69t63.5 185v545h176v-989q0 -202 -127 -333.5t-320 -131.5zM305 1307
h455v-144h-455v144z" />
    <glyph glyph-name="uni0406.alt" horiz-adv-x="710" 
d="M72 160h188v1052h-188v160h567v-160h-188v-1052h188v-160h-567v160z" />
    <glyph glyph-name="uni0407.alt" horiz-adv-x="710" 
d="M72 160h188v1052h-188v160h567v-160h-188v-1052h188v-160h-567v160zM160 1550q-50 0 -83.5 34t-33.5 83q0 51 33.5 85t83.5 34t84.5 -34t34.5 -85q0 -49 -34.5 -83t-84.5 -34zM549 1550q-49 0 -83 34t-34 83q0 51 33.5 85t83.5 34t84.5 -34t34.5 -85q0 -49 -34.5 -83
t-84.5 -34z" />
    <glyph glyph-name="uni0430.alt" horiz-adv-x="1165" 
d="M535 -23q-191 0 -322 142.5t-131 351.5q0 205 134 349.5t325 144.5q97 0 180 -40.5t141 -113.5v131h170v-942h-170v141q-57 -77 -141 -120.5t-186 -43.5zM567 143q134 0 220.5 93t86.5 235q0 143 -86 235.5t-221 92.5q-131 0 -217 -93t-86 -235t86.5 -235t216.5 -93z" />
    <glyph glyph-name="uni0443.alt" 
d="M489 -512q-110 0 -204.5 46t-161.5 134l127 117q88 -131 237 -131q124 0 198.5 82t74.5 221v164q-114 -144 -281 -144q-155 0 -255.5 109.5t-100.5 275.5v580h176v-547q0 -116 62 -184t167 -68t168.5 69t63.5 185v545h176v-989q0 -202 -127 -333.5t-320 -131.5z" />
    <glyph glyph-name="uni045E.alt" 
d="M489 -512q-110 0 -204.5 46t-161.5 134l127 117q88 -131 237 -131q124 0 198.5 82t74.5 221v164q-114 -144 -281 -144q-155 0 -255.5 109.5t-100.5 275.5v580h176v-547q0 -116 62 -184t167 -68t168.5 69t63.5 185v545h176v-989q0 -202 -127 -333.5t-320 -131.5zM530 1061
q-119 0 -191.5 77t-72.5 205h152q0 -68 31 -108.5t81 -40.5q54 0 84.5 40.5t30.5 108.5h152q0 -129 -72.5 -205.5t-194.5 -76.5z" />
    <glyph glyph-name="ygrave.alt" 
d="M489 -512q-110 0 -204.5 46t-161.5 134l127 117q88 -131 237 -131q124 0 198.5 82t74.5 221v164q-114 -144 -281 -144q-155 0 -255.5 109.5t-100.5 275.5v580h176v-547q0 -116 62 -184t167 -68t168.5 69t63.5 185v545h176v-989q0 -202 -127 -333.5t-320 -131.5zM258 1333
l131 99l221 -322l-100 -74z" />
    <glyph glyph-name="fl.alt" horiz-adv-x="1212" 
d="M1018 -23q-124 0 -195 79.5t-71 219.5v820q0 92 -50 145t-135 53t-135.5 -53t-50.5 -145v-154h248v-160h-248v-782h-176v782h-144v160h144v154q0 158 101 258t261 100q158 0 259.5 -101t101.5 -257v-817q0 -142 108 -142q64 0 115 51l82 -116q-89 -95 -215 -95z" />
    <glyph glyph-name="ffl.alt" horiz-adv-x="1779" 
d="M1585 -23q-124 0 -195 79.5t-71 219.5v820q0 92 -50 145t-136 53q-85 0 -135 -53t-50 -145v-154h248v-160h-248v-782h-176v782h-391v-782h-176v782h-144v160h144v211q0 135 80 218t211 83q141 0 239 -98l-98 -131q-66 69 -133 69q-57 0 -90 -37.5t-33 -103.5v-211h391
v154q0 158 101 258t260 100t260.5 -101t101.5 -257v-817q0 -142 109 -142q63 0 114 51l82 -116q-89 -95 -215 -95z" />
    <glyph glyph-name="parenleft.case" horiz-adv-x="741" 
d="M580 -317q-201 180 -313.5 439t-112.5 540q0 283 113 545t313 442l120 -101q-169 -165 -268.5 -401.5t-99.5 -478.5q0 -245 98.5 -478.5t269.5 -404.5z" />
    <glyph glyph-name="parenright.case" horiz-adv-x="741" 
d="M41 -215q171 171 270 404.5t99 478.5q0 242 -99.5 478.5t-269.5 401.5l121 101q200 -180 313 -442t113 -545q0 -281 -112.5 -540t-313.5 -439z" />
    <glyph glyph-name="hyphen.case" horiz-adv-x="624" 
d="M82 764h461v-178h-461v178z" />
    <glyph glyph-name="colon.case" horiz-adv-x="512" 
d="M256 131q-54 0 -88.5 34.5t-34.5 88.5t34.5 88.5t88.5 34.5t88.5 -34.5t34.5 -88.5t-34.5 -88.5t-88.5 -34.5zM256 852q-54 0 -88.5 34.5t-34.5 88.5t34.5 88.5t88.5 34.5t88.5 -34.5t34.5 -88.5t-34.5 -88.5t-88.5 -34.5z" />
    <glyph glyph-name="at.case" horiz-adv-x="1943" 
d="M846 -195q-206 38 -366 154t-248.5 292t-88.5 382q0 174 66 328.5t179.5 264.5t272 174t336.5 64q229 0 418 -100.5t297.5 -277t108.5 -392.5q0 -206 -95 -331t-247 -125q-87 0 -154 42t-100 115q-48 -75 -121 -117t-162 -42q-152 0 -256 111t-104 271q0 157 106 269
t254 112q145 0 238 -104v86h157v-424q0 -79 39.5 -127.5t102.5 -48.5q80 0 128 79t48 218q0 136 -49.5 254t-136.5 201.5t-209.5 131.5t-264.5 48q-195 0 -352 -88t-245.5 -242.5t-88.5 -345.5q0 -264 163 -451t419 -229zM969 381q98 0 162.5 68.5t64.5 168.5
q0 99 -65 167.5t-162 68.5q-92 0 -156.5 -69t-64.5 -167q0 -100 64.5 -168.5t156.5 -68.5z" />
    <glyph glyph-name="bracketleft.case" horiz-adv-x="663" 
d="M195 1597h407v-159h-233v-1565h233v-160h-407v1884z" />
    <glyph glyph-name="bracketright.case" horiz-adv-x="663" 
d="M61 -127h234v1565h-234v159h408v-1884h-408v160z" />
    <glyph glyph-name="braceleft.case" horiz-adv-x="673" 
d="M547 -287q-139 0 -220 81t-81 218v420q0 62 -41.5 102.5t-106.5 40.5h-16v160h16q65 0 106.5 41t41.5 103v419q0 137 81 218t220 81h65v-159h-65q-59 0 -94 -39t-35 -101v-419q0 -86 -36.5 -143t-107.5 -77v-8q144 -41 144 -219v-420q0 -62 35 -100.5t94 -38.5h65v-160
h-65z" />
    <glyph glyph-name="braceright.case" horiz-adv-x="673" 
d="M61 -127h66q59 0 94 38.5t35 100.5v420q0 179 143 219v8q-71 20 -107 77t-36 143v419q0 62 -35 101t-94 39h-66v159h66q139 0 220 -81t81 -218v-419q0 -62 41 -103t106 -41h17v-160h-17q-65 0 -106 -40.5t-41 -102.5v-420q0 -137 -81 -218t-220 -81h-66v160z" />
    <glyph glyph-name="exclamdown.case" horiz-adv-x="512" 
d="M186 1012h140l30 -1012h-200zM256 1139q-54 0 -88.5 34.5t-34.5 88.5t34.5 88t88.5 34t88.5 -34t34.5 -88t-34.5 -88.5t-88.5 -34.5z" />
    <glyph glyph-name="guillemotleft.case" horiz-adv-x="956" 
d="M82 655l270 392l125 -86l-213 -306l213 -305l-125 -86zM438 655l273 392l123 -86l-211 -306l211 -305l-123 -86z" />
    <glyph glyph-name="periodcentered.case" horiz-adv-x="450" 
d="M223 545q-51 0 -86 34.5t-35 88.5t34.5 88.5t88.5 34.5t88.5 -34.5t34.5 -88.5t-35.5 -88.5t-89.5 -34.5z" />
    <glyph glyph-name="guillemotright.case" horiz-adv-x="956" 
d="M123 350l211 305l-211 306l123 86l272 -392l-272 -391zM479 350l213 305l-213 306l125 86l270 -392l-270 -391z" />
    <glyph glyph-name="questiondown.case" horiz-adv-x="917" 
d="M465 -23q-165 0 -269 90t-104 236q0 88 50 158.5t175 156.5q83 56 114.5 94.5t31.5 80.5q0 41 -28.5 65t-96.5 43l57 141q258 -58 258 -241q0 -75 -47 -139t-160 -146q-92 -68 -127.5 -115.5t-35.5 -99.5q0 -69 55 -107t141 -38q165 0 264 139l123 -115
q-154 -203 -401 -203zM498 1139q-54 0 -88.5 34.5t-34.5 88.5t34.5 88t88.5 34t88.5 -34t34.5 -88t-34.5 -88.5t-88.5 -34.5z" />
    <glyph glyph-name="endash.case" horiz-adv-x="993" 
d="M41 754h911v-156h-911v156z" />
    <glyph glyph-name="emdash.case" horiz-adv-x="1443" 
d="M41 754h1362v-156h-1362v156z" />
    <glyph glyph-name="bullet.case" horiz-adv-x="714" 
d="M358 516q-65 0 -109 44t-44 108q0 66 43.5 109.5t109.5 43.5q64 0 108 -44t44 -109q0 -63 -44.5 -107.5t-107.5 -44.5z" />
    <glyph glyph-name="guilsinglleft.case" horiz-adv-x="653" 
d="M61 655l381 394l109 -107l-279 -287l279 -286l-109 -107z" />
    <glyph glyph-name="guilsinglright.case" horiz-adv-x="653" 
d="M102 369l279 286l-279 287l109 107l381 -394l-381 -393z" />
    <glyph glyph-name="zero.dnom" horiz-adv-x="765" 
d="M383 -23q-141 0 -231.5 114.5t-90.5 293.5q0 175 90.5 289t231.5 114t231.5 -114t90.5 -289q0 -179 -90.5 -293.5t-231.5 -114.5zM383 123q72 0 115 72t43 190q0 117 -43 187.5t-115 70.5t-115 -70.5t-43 -187.5q0 -119 43 -190.5t115 -71.5z" />
    <glyph glyph-name="one.dnom" horiz-adv-x="600" 
d="M287 559l-170 -119l-76 115l334 231h71v-786h-159v559z" />
    <glyph glyph-name="two.dnom" horiz-adv-x="739" 
d="M63 63l248 226q98 91 129 135t31 90q0 60 -32.5 95.5t-86.5 35.5q-56 0 -91 -40t-46 -113l-154 38q23 122 101 190t196 68q123 0 200 -73t77 -187q0 -74 -42.5 -138.5t-154.5 -164.5l-94 -82h313v-143h-594v63z" />
    <glyph glyph-name="three.dnom" horiz-adv-x="729" 
d="M352 -23q-103 0 -181.5 47t-109.5 126l127 79q47 -108 162 -108q61 0 97 31.5t36 85.5q0 57 -41.5 87.5t-119.5 30.5h-105v72l193 207h-297v131h514v-70l-203 -225q103 -17 163 -81.5t60 -158.5q0 -112 -83.5 -183t-211.5 -71z" />
    <glyph glyph-name="four.dnom" horiz-adv-x="688" 
d="M375 113h-385v77l454 596h74v-542h98v-131h-98v-113h-143v113zM375 244v264l-197 -264h197z" />
    <glyph glyph-name="five.dnom" horiz-adv-x="718" 
d="M336 -23q-100 0 -177 47t-108 128l123 81q46 -112 160 -112q63 0 101 37t38 98t-40 97t-111 36q-81 0 -140 -53l-61 33l47 397h430v-131h-305l-14 -129q47 14 90 14q117 0 192.5 -74.5t75.5 -191.5q0 -121 -85 -199t-216 -78z" />
    <glyph glyph-name="six.dnom" horiz-adv-x="684" 
d="M330 -23q-129 0 -209 79.5t-80 209.5q0 147 102 287.5t273 226.5l82 -110q-84 -43 -141 -91t-99 -110q48 25 109 25q107 0 181.5 -73t74.5 -179q0 -115 -84 -190t-209 -75zM332 109q60 0 96.5 36.5t36.5 94.5q0 59 -36 90.5t-97 31.5t-97 -32t-36 -88q0 -60 36.5 -96.5
t96.5 -36.5z" />
    <glyph glyph-name="seven.dnom" horiz-adv-x="595" 
d="M408 623h-357v143h555v-70l-309 -696h-168z" />
    <glyph glyph-name="eight.dnom" horiz-adv-x="747" 
d="M373 -23q-127 0 -209 68.5t-82 171.5q0 126 113 193q-82 63 -82 157q0 93 75 157t185 64t186 -64.5t76 -156.5q0 -96 -86 -157q117 -70 117 -193q0 -104 -84 -172t-209 -68zM373 109q61 0 98 32.5t37 83.5q0 54 -36.5 85.5t-98.5 31.5q-61 0 -97 -31.5t-36 -85.5
q0 -52 36 -84t97 -32zM373 467q47 0 75.5 26t28.5 68t-28.5 69t-75.5 27t-75 -27t-28 -69t28 -68t75 -26z" />
    <glyph glyph-name="nine.dnom" horiz-adv-x="681" 
d="M186 96q84 43 141 91t99 110q-48 -25 -111 -25q-107 0 -180.5 73t-73.5 179q0 115 83 189.5t210 74.5q129 0 208 -79t79 -209q0 -147 -101 -287.5t-272 -226.5zM352 403q60 0 95.5 32t35.5 89q0 60 -35.5 96.5t-95.5 36.5t-96.5 -36.5t-36.5 -94.5q0 -59 36 -91t97 -32z
" />
    <glyph glyph-name="Iacute_J.loclNLD" horiz-adv-x="1462" 
d="M174 1372h191v-1372h-191v1372zM899 -23q-229 0 -338 195l144 119q77 -135 196 -135q96 0 151.5 69.5t55.5 188.5v780h-385v178h575v-956q0 -196 -110 -317.5t-289 -121.5zM201 1540l221 322l131 -99l-252 -297zM913 1540l222 322l131 -99l-252 -297z" />
    <glyph glyph-name="iacute_j.loclNLD" horiz-adv-x="892" 
d="M133 942h176v-942h-176v942zM487 -512q-111 0 -192 78l86 143q52 -55 100 -55q49 0 75 37t26 100v1151h176v-1157q0 -134 -73.5 -215.5t-197.5 -81.5zM154 1110l221 322l131 -99l-250 -297zM602 1110l221 322l131 -99l-249 -297z" />
    <glyph glyph-name="zero.numr" horiz-adv-x="765" 
d="M383 584q-141 0 -231.5 114.5t-90.5 292.5q0 175 90.5 289.5t231.5 114.5t231.5 -114.5t90.5 -289.5q0 -178 -90.5 -292.5t-231.5 -114.5zM383 729q72 0 115 72t43 190q0 117 -43 187.5t-115 70.5t-115 -70.5t-43 -187.5q0 -119 43 -190.5t115 -71.5z" />
    <glyph glyph-name="one.numr" horiz-adv-x="600" 
d="M287 1165l-170 -118l-76 114l334 232h71v-787h-159v559z" />
    <glyph glyph-name="two.numr" horiz-adv-x="739" 
d="M63 670l248 225q98 91 129 135t31 90q0 60 -32.5 95.5t-86.5 35.5q-56 0 -91 -40t-46 -113l-154 39q23 122 101 190t196 68q123 0 200 -73t77 -187q0 -74 -42.5 -139.5t-154.5 -164.5l-94 -81h313v-144h-594v64z" />
    <glyph glyph-name="three.numr" horiz-adv-x="729" 
d="M352 584q-103 0 -181.5 46.5t-109.5 125.5l127 80q47 -109 162 -109q61 0 97 31.5t36 85.5q0 57 -41.5 88t-119.5 31h-105v71l193 207h-297v131h514v-69l-203 -226q103 -17 163 -81t60 -158q0 -112 -83.5 -183t-211.5 -71z" />
    <glyph glyph-name="four.numr" horiz-adv-x="688" 
d="M375 719h-385v78l454 596h74v-543h98v-131h-98v-113h-143v113zM375 850v264l-197 -264h197z" />
    <glyph glyph-name="five.numr" horiz-adv-x="718" 
d="M336 584q-101 0 -177.5 46.5t-107.5 127.5l123 82q46 -113 160 -113q63 0 101 37t38 98t-40 97t-111 36q-81 0 -140 -53l-61 33l47 397h430v-131h-305l-14 -129q47 14 90 14q117 0 192.5 -74.5t75.5 -191.5q0 -121 -85 -198.5t-216 -77.5z" />
    <glyph glyph-name="six.numr" horiz-adv-x="684" 
d="M330 584q-129 0 -209 79t-80 209q0 147 102 287.5t273 226.5l82 -110q-84 -43 -141 -91t-99 -110q48 25 109 25q107 0 181.5 -73t74.5 -179q0 -115 -84 -189.5t-209 -74.5zM332 715q60 0 96.5 36.5t36.5 94.5q0 59 -36 91t-97 32t-97 -32.5t-36 -88.5q0 -60 36.5 -96.5
t96.5 -36.5z" />
    <glyph glyph-name="seven.numr" horiz-adv-x="595" 
d="M408 1229h-357v143h555v-69l-309 -697h-168z" />
    <glyph glyph-name="eight.numr" horiz-adv-x="747" 
d="M373 584q-127 0 -209 68t-82 171q0 126 113 193q-82 63 -82 158q0 93 75 157t185 64t186 -64.5t76 -156.5q0 -97 -86 -158q117 -70 117 -193q0 -104 -84 -171.5t-209 -67.5zM373 715q61 0 98 32.5t37 83.5q0 54 -36.5 85.5t-98.5 31.5q-61 0 -97 -31.5t-36 -85.5
q0 -52 36 -84t97 -32zM373 1073q47 0 75.5 26t28.5 68t-28.5 69.5t-75.5 27.5q-46 0 -74.5 -27.5t-28.5 -69.5t28 -68t75 -26z" />
    <glyph glyph-name="nine.numr" horiz-adv-x="681" 
d="M186 702q84 43 141 91t99 110q-46 -24 -111 -24q-107 0 -180.5 72.5t-73.5 178.5q0 115 83.5 190t209.5 75q129 0 208 -79.5t79 -209.5q0 -147 -101 -287.5t-272 -226.5zM352 1010q61 0 96 31.5t35 88.5q0 60 -35.5 97t-95.5 37t-96.5 -37t-36.5 -94q0 -59 36 -91t97 -32
z" />
    <glyph glyph-name="zero.osf" horiz-adv-x="1054" 
d="M526 -23q-184 0 -304 148.5t-120 376.5q0 226 120 375t304 149q183 0 304.5 -149t121.5 -375t-121 -375.5t-305 -149.5zM526 139q110 0 177 101t67 264q0 160 -67 260t-177 100q-109 0 -175 -99.5t-66 -260.5q0 -163 66 -264t175 -101z" />
    <glyph glyph-name="one.osf" horiz-adv-x="641" 
d="M299 756l-190 -133l-89 133l388 266h69v-1022h-178v756z" />
    <glyph glyph-name="two.osf" horiz-adv-x="931" 
d="M82 104q0 64 20 119.5t48.5 94t76 74.5t88 58.5t97.5 49.5q137 66 186 110.5t49 102.5q0 67 -49 109t-129 42q-86 0 -144 -52t-81 -150l-158 40q30 153 133.5 238.5t251.5 85.5q155 0 256.5 -89t101.5 -224q0 -116 -80.5 -192.5t-244.5 -149.5q-97 -41 -157 -91.5
t-64 -119.5h557v-160h-758v104z" />
    <glyph glyph-name="three.osf" horiz-adv-x="962" 
d="M453 -309q-147 0 -261 77.5t-161 208.5l149 80q35 -98 105.5 -151t167.5 -53q110 0 177.5 67t67.5 176q0 113 -72.5 180.5t-199.5 67.5h-172v70l340 430h-479v160h751v-70l-348 -438q161 -20 262 -130.5t101 -265.5q0 -177 -122 -293t-306 -116z" />
    <glyph glyph-name="four.osf" horiz-adv-x="983" 
d="M614 150v495l-354 -495h354zM614 0h-594v70l687 952h67v-872h158v-150h-158v-309h-160v309z" />
    <glyph glyph-name="five.osf" horiz-adv-x="983" 
d="M455 -309q-148 0 -261 77t-163 209l151 78q35 -97 106 -149.5t165 -52.5q116 0 186 75t70 195q0 119 -73 193.5t-194 74.5q-119 0 -217 -82l-65 39l69 656h625v-160h-483l-33 -318q61 27 143 27q176 0 293 -122.5t117 -303.5q0 -186 -124 -311t-312 -125z" />
    <glyph glyph-name="six.osf" horiz-adv-x="1044" 
d="M528 -23q-193 0 -314.5 129.5t-121.5 333.5q0 250 158.5 480t443.5 395l101 -127q-163 -99 -264.5 -197t-168.5 -221q70 61 203 61q176 0 292 -119t116 -298q0 -185 -128 -311t-317 -126zM532 139q114 0 186.5 76t72.5 193t-71 189.5t-188 72.5q-115 0 -186.5 -72.5
t-71.5 -189.5q0 -116 72.5 -192.5t185.5 -76.5z" />
    <glyph glyph-name="seven.osf" horiz-adv-x="911" 
d="M637 844h-606v160h839v-70l-569 -1243h-190z" />
    <glyph glyph-name="eight.osf" horiz-adv-x="1054" 
d="M528 -23q-184 0 -310 113.5t-126 276.5q0 107 55 191.5t152 137.5q-68 45 -106.5 116.5t-38.5 156.5q0 146 107.5 245t264.5 99q159 0 267 -99.5t108 -246.5q0 -169 -143 -271q95 -51 150 -136.5t55 -192.5q0 -165 -126.5 -277.5t-308.5 -112.5zM528 135
q111 0 182.5 66.5t71.5 171.5q0 107 -72 173t-182 66q-111 0 -183.5 -67t-72.5 -172t72.5 -171.5t183.5 -66.5zM528 770q83 0 138 54t55 139t-55 138.5t-138 53.5q-85 0 -139.5 -53t-54.5 -139t54.5 -139.5t139.5 -53.5z" />
    <glyph glyph-name="nine.osf" horiz-adv-x="1044" 
d="M250 -184q163 99 264 196.5t168 220.5q-73 -61 -203 -61q-176 0 -291.5 119.5t-115.5 298.5q0 185 127.5 310.5t316.5 125.5q193 0 314.5 -129.5t121.5 -333.5q0 -250 -158.5 -479.5t-443.5 -394.5zM512 334q115 0 186.5 72.5t71.5 189.5q0 116 -72.5 192t-185.5 76
q-115 0 -186.5 -74.5t-71.5 -191.5q0 -119 70.5 -191.5t187.5 -72.5z" />
    <glyph glyph-name="zero.tab" horiz-adv-x="1126" 
d="M563 -23q-148 0 -259.5 88t-171.5 249t-60 372q0 319 134.5 514t356.5 195t357 -195t135 -514t-135 -514t-357 -195zM563 156q138 0 213.5 140t75.5 390t-75.5 390.5t-213.5 140.5t-213.5 -140.5t-75.5 -390.5q0 -252 75 -391t214 -139z" />
    <glyph glyph-name="one.tab" horiz-adv-x="1126" 
d="M154 178h362v944l-295 -180l-98 145l512 322h72v-1231h327v-178h-880v178z" />
    <glyph glyph-name="two.tab" horiz-adv-x="1126" 
d="M121 168q0 69 21.5 130.5t54 107.5t86 93t102 80t117.5 74q152 84 229.5 163t77.5 177q0 99 -68 161.5t-174 62.5q-219 0 -278 -261l-176 35q35 191 154.5 297.5t299.5 106.5q190 0 311 -112.5t121 -285.5q0 -78 -27 -145t-84 -127.5t-125 -111t-169 -111.5
q-64 -40 -106 -70t-87 -71.5t-67.5 -87t-22.5 -95.5h693v-178h-883v168z" />
    <glyph glyph-name="three.tab" horiz-adv-x="1126" 
d="M549 -23q-149 0 -267 73t-190 210l154 102q93 -206 305 -206q121 0 191.5 68.5t70.5 181.5q0 126 -87.5 195t-236.5 69h-157v69l364 455h-503v178h798v-69l-383 -476q177 -20 286.5 -137t109.5 -284q0 -187 -127.5 -308t-327.5 -121z" />
    <glyph glyph-name="four.tab" horiz-adv-x="1126" 
d="M682 250h-631v86l737 1073h84v-981h172v-178h-172v-250h-190v250zM682 428v555l-381 -555h381z" />
    <glyph glyph-name="five.tab" horiz-adv-x="1126" 
d="M530 -23q-148 0 -263.5 73t-184.5 210l151 102q99 -206 299 -206q124 0 197.5 74.5t73.5 201.5q0 129 -78 205t-209 76q-133 0 -229 -78l-68 39l107 698h637v-178h-496l-51 -326q74 23 141 23q190 0 313 -128t123 -323q0 -203 -130.5 -333t-332.5 -130z" />
    <glyph glyph-name="six.tab" horiz-adv-x="1126" 
d="M561 -23q-205 0 -337 137t-132 357q0 249 172 501t475 449l109 -133q-322 -222 -479 -473q98 70 225 70q189 0 319.5 -131t130.5 -320q0 -191 -139 -324t-344 -133zM571 156q121 0 202 79.5t81 198.5q0 118 -80.5 195.5t-202.5 77.5q-123 0 -205.5 -77.5t-82.5 -195.5
q0 -119 82.5 -198.5t205.5 -79.5z" />
    <glyph glyph-name="seven.tab" horiz-adv-x="1126" 
d="M811 1194h-678v178h932v-69l-653 -1303h-205z" />
    <glyph glyph-name="eight.tab" horiz-adv-x="1126" 
d="M565 -23q-202 0 -337.5 116t-135.5 288q0 115 64 207.5t174 144.5q-80 48 -126 125.5t-46 169.5q0 154 118 260.5t289 106.5t287.5 -106.5t116.5 -260.5q0 -95 -45 -171t-125 -124q110 -52 172.5 -144t62.5 -208q0 -172 -135 -288t-334 -116zM565 150q123 0 201 68
t78 177q0 108 -78 176t-201 68t-202.5 -69t-79.5 -175t79.5 -175.5t202.5 -69.5zM565 811q94 0 153.5 57.5t59.5 149.5q0 91 -59.5 148t-153.5 57q-97 0 -157 -57t-60 -148q0 -92 60 -149.5t157 -57.5z" />
    <glyph glyph-name="nine.tab" horiz-adv-x="1126" 
d="M279 84q169 116 284 230.5t195 242.5q-94 -70 -226 -70q-185 0 -317.5 131.5t-132.5 319.5q0 191 140 324t345 133t336 -137t131 -357q0 -249 -172 -501t-475 -449zM557 666q122 0 204.5 77t82.5 195t-82.5 198.5t-204.5 80.5q-121 0 -203 -80t-82 -199q0 -118 81.5 -195
t203.5 -77z" />
    <glyph glyph-name="zero.tabosf" horiz-adv-x="993" 
d="M496 -23q-184 0 -304 148.5t-120 376.5q0 226 120 375t304 149q183 0 304.5 -149t121.5 -375t-121 -375.5t-305 -149.5zM496 139q110 0 176.5 101t66.5 264q0 161 -66.5 260.5t-176.5 99.5t-176 -99.5t-66 -260.5q0 -162 66.5 -263.5t175.5 -101.5z" />
    <glyph glyph-name="one.tabosf" horiz-adv-x="993" 
d="M129 160h315v594l-241 -168l-90 131l436 305h74v-862h278v-160h-772v160z" />
    <glyph glyph-name="two.tabosf" horiz-adv-x="993" 
d="M123 104q0 64 20 119.5t48.5 94t76 74.5t88 58.5t97.5 49.5q137 66 186 110.5t49 102.5q0 67 -49 109t-129 42q-86 0 -144 -52t-81 -150l-158 40q30 153 133.5 238.5t251.5 85.5q155 0 256.5 -89t101.5 -224q0 -116 -80.5 -192.5t-244.5 -149.5q-97 -41 -157 -91.5
t-64 -119.5h557v-160h-758v104z" />
    <glyph glyph-name="three.tabosf" horiz-adv-x="993" 
d="M463 -309q-147 0 -261 77.5t-161 208.5l149 80q35 -98 105.5 -151t167.5 -53q110 0 178 67t68 176q0 113 -73 180.5t-200 67.5h-172v70l340 430h-479v160h752v-70l-349 -438q161 -20 262 -130.5t101 -265.5q0 -177 -122 -293t-306 -116z" />
    <glyph glyph-name="four.tabosf" horiz-adv-x="993" 
d="M614 150v495l-354 -495h354zM614 0h-594v70l687 952h67v-872h158v-150h-158v-309h-160v309z" />
    <glyph glyph-name="five.tabosf" horiz-adv-x="993" 
d="M465 -309q-148 0 -261 77t-163 209l152 78q35 -97 105.5 -149.5t164.5 -52.5q116 0 186 75t70 195q0 119 -72.5 193.5t-193.5 74.5q-119 0 -217 -82l-66 39l70 656h624v-160h-483l-33 -318q62 27 144 27q176 0 292.5 -122.5t116.5 -303.5q0 -186 -124 -311t-312 -125z
" />
    <glyph glyph-name="six.tabosf" horiz-adv-x="993" 
d="M498 -23q-193 0 -315 129.5t-122 333.5q0 250 159 480t444 395l100 -127q-162 -99 -263.5 -196.5t-168.5 -221.5q70 61 203 61q176 0 291.5 -119t115.5 -298q0 -185 -127.5 -311t-316.5 -126zM502 139q114 0 186 76t72 193t-70.5 189.5t-187.5 72.5q-115 0 -186.5 -72.5
t-71.5 -189.5q0 -116 72.5 -192.5t185.5 -76.5z" />
    <glyph glyph-name="seven.tabosf" horiz-adv-x="993" 
d="M688 844h-606v160h840v-70l-570 -1243h-190z" />
    <glyph glyph-name="eight.tabosf" horiz-adv-x="993" 
d="M498 -23q-184 0 -310.5 113.5t-126.5 276.5q0 107 55 191.5t152 137.5q-68 45 -106.5 116.5t-38.5 156.5q0 146 108 245t265 99q159 0 266.5 -99.5t107.5 -246.5q0 -169 -143 -271q95 -51 150 -136.5t55 -192.5q0 -165 -126 -277.5t-308 -112.5zM498 135
q111 0 182.5 66.5t71.5 171.5q0 107 -72 173t-182 66q-111 0 -183.5 -67t-72.5 -172t72.5 -171.5t183.5 -66.5zM498 770q83 0 137.5 54t54.5 139t-54.5 138.5t-137.5 53.5q-85 0 -140 -53t-55 -139t55 -139.5t140 -53.5z" />
    <glyph glyph-name="nine.tabosf" horiz-adv-x="993" 
d="M229 -184q163 99 264.5 196.5t168.5 220.5q-73 -61 -203 -61q-176 0 -292 119.5t-116 298.5q0 185 128 310.5t317 125.5q193 0 314.5 -129.5t121.5 -333.5q0 -250 -158.5 -479.5t-443.5 -394.5zM492 334q115 0 186.5 72.5t71.5 189.5q0 116 -72.5 192t-185.5 76
q-115 0 -187 -74.5t-72 -191.5q0 -119 71 -191.5t188 -72.5z" />
    <glyph glyph-name="foundryicon" horiz-adv-x="3149" 
d="M350 879h-145v63h364v-63h-147v-408h-72v408zM590 346q-17 0 -21 2v58q49 0 64 40l12 33l-129 326h76l90 -238l90 238h76l-158 -389q-34 -70 -100 -70zM897 805h49l19 -39q38 45 98 45q66 0 112 -50t46 -122q0 -73 -46 -123.5t-112 -50.5q-59 0 -96 43v-162h-70v459z
M1057 528q39 0 67.5 32t28.5 79q0 43 -29 74.5t-67 31.5q-41 0 -68.5 -31.5t-27.5 -74.5q0 -47 27.5 -79t68.5 -32zM1436 465q-66 0 -113 50.5t-47 123.5q0 71 46.5 121.5t113.5 50.5q66 0 110.5 -49t44.5 -121q0 -3 -1 -9t-1 -9v-13h-243q5 -36 30 -60t60 -24q55 0 75 35
h72q-18 -46 -58 -71t-89 -25zM1526 666q-1 34 -29 58t-61 24q-34 0 -60 -22.5t-30 -59.5h180zM1704 879h-145v63h364v-63h-147v-408h-72v408zM1944 346q-17 0 -21 2v58q49 0 64 40l12 33l-129 326h76l90 -238l90 238h76l-158 -389q-34 -70 -100 -70zM2251 805h49l18 -39
q38 45 99 45q66 0 111.5 -50t45.5 -122q0 -73 -45.5 -123.5t-111.5 -50.5q-60 0 -97 43v-162h-69v459zM2410 528q39 0 68 32.5t29 78.5q0 43 -29.5 74.5t-67.5 31.5q-41 0 -68.5 -31.5t-27.5 -74.5q0 -47 27.5 -79t68.5 -32zM2789 465q-66 0 -112.5 50.5t-46.5 123.5
q0 71 46 121.5t113 50.5q66 0 111 -49t45 -121q0 -3 -1 -9t-1 -9v-13h-244q5 -36 30 -60t60 -24q56 0 76 35h72q-18 -46 -58.5 -71t-89.5 -25zM2879 666q-1 34 -29 58t-61 24q-34 0 -60 -22.5t-30 -59.5h180z" />
    </font>
</defs>
</svg>
